<?xml version="1.0" standalone="no"?>
<!DOCTYPE svg PUBLIC "-//W3C//DTD SVG 1.1//EN" "http://www.w3.org/Graphics/SVG/1.1/DTD/svg11.dtd" >
<svg xmlns="http://www.w3.org/2000/svg" xmlns:xlink="http://www.w3.org/1999/xlink" version="1.1">
<metadata>
Created by FontForge 20170731 at Mon Apr  2 12:24:46 2012
 By Aleksey,,,
Copyright (c) 2012 by Jovanny Lemonad. All rights reserved.
</metadata>
<defs>
<font id="RussoOne" horiz-adv-x="630" >
  <font-face 
    font-family="Russo One"
    font-weight="400"
    font-stretch="normal"
    units-per-em="1000"
    panose-1="2 0 5 3 5 0 0 2 0 4"
    ascent="800"
    descent="-200"
    x-height="530"
    cap-height="700"
    bbox="-260 -279 1210 926"
    underline-thickness="50"
    underline-position="-150"
    unicode-range="U+0020-2122"
  />
<missing-glyph horiz-adv-x="300" 
 />
    <glyph glyph-name=".notdef" horiz-adv-x="300" 
 />
    <glyph glyph-name=".null" horiz-adv-x="0" 
 />
    <glyph glyph-name="nonmarkingreturn" horiz-adv-x="300" 
 />
    <glyph glyph-name="space" unicode=" " horiz-adv-x="300" 
 />
    <glyph glyph-name="space" unicode="&#xa0;" horiz-adv-x="300" 
 />
    <glyph glyph-name="exclam" unicode="!" horiz-adv-x="280" 
d="M50 150h180v-150h-180v150zM70 210l-20 210v280h180v-280l-20 -210h-140z" />
    <glyph glyph-name="quotedbl" unicode="&#x22;" horiz-adv-x="400" 
d="M50 450l-20 160v90h150v-90l-20 -160h-110zM240 450l-20 160v90h150v-90l-20 -160h-110z" />
    <glyph glyph-name="numbersign" unicode="#" horiz-adv-x="730" 
d="M70 0l32 150h-92v130h120l30 140h-110v130h138l32 150h160l-32 -150h120l32 150h160l-32 -150h92v-130h-120l-30 -140h110v-130h-138l-32 -150h-160l32 150h-120l-32 -150h-160zM290 280h120l30 140h-120z" />
    <glyph glyph-name="dollar" unicode="$" horiz-adv-x="629" 
d="M210 480q0 -60 60 -60h139q98 0 144 -46t46 -144v-50q0 -98 -45.5 -144t-143.5 -46h-28l8 -90h-150l10 95q-42 2 -80 4.5t-67 4.5q-34 3 -64 6v135q62 -4 122 -8q51 -3 108 -5t100 -2q23 0 36.5 13.5t13.5 36.5v100h-189q-105 0 -152.5 47.5t-47.5 152.5v20
q0 105 47.5 152.5t152.5 47.5h20l-10 90h150l-10 -90h160v-140h-270q-60 0 -60 -60v-20z" />
    <glyph glyph-name="percent" unicode="%" horiz-adv-x="860" 
d="M150 0l400 700h150l-390 -700h-160zM360 465q0 -60 -32.5 -92.5t-92.5 -32.5h-90q-60 0 -92.5 32.5t-32.5 92.5v120q0 60 32.5 92.5t92.5 32.5h90q60 0 92.5 -32.5t32.5 -92.5v-120zM240 585q0 35 -35 35h-30q-35 0 -35 -35v-120q0 -35 35 -35h30q35 0 35 35v120z
M840 115q0 -60 -32.5 -92.5t-92.5 -32.5h-90q-60 0 -92.5 32.5t-32.5 92.5v120q0 60 32.5 92.5t92.5 32.5h90q60 0 92.5 -32.5t32.5 -92.5v-120zM720 235q0 35 -35 35h-30q-35 0 -35 -35v-120q0 -35 35 -35h30q35 0 35 35v120z" />
    <glyph glyph-name="ampersand" unicode="&#x26;" horiz-adv-x="720" 
d="M50 520q0 91 46 135.5t144 44.5h320v-140h-270q-60 0 -60 -60v-30q0 -60 60 -60h160l15 80h165v-80h80v-140h-80v-260q-68 -6 -138 -10q-60 -4 -132 -7t-140 -3q-98 0 -144 46t-46 144q0 41 10.5 72.5t27 53.5t38 35t44.5 19q-45 15 -72.5 52.5t-27.5 97.5v10zM260 130
q30 0 63 0.5t62 1.5q33 1 65 3v135h-180q-60 0 -60 -60v-30q0 -23 13.5 -36.5t36.5 -13.5z" />
    <glyph glyph-name="quotesingle" unicode="'" horiz-adv-x="210" 
d="M50 450l-20 160v90h150v-90l-20 -160h-110z" />
    <glyph glyph-name="parenleft" unicode="(" horiz-adv-x="325" 
d="M30 295q0 155 57 291t163 234l85 -70q-64 -98 -94.5 -210.5t-30.5 -244.5t30.5 -244.5t94.5 -210.5l-85 -70q-106 98 -163 234t-57 291z" />
    <glyph glyph-name="parenright" unicode=")" horiz-adv-x="325" 
d="M295 295q0 -155 -57 -291t-163 -234l-85 70q64 98 94.5 210.5t30.5 244.5t-30.5 244.5t-94.5 210.5l85 70q106 -98 163 -234t57 -291z" />
    <glyph glyph-name="asterisk" unicode="*" horiz-adv-x="495" 
d="M310 365v-125h-125v125l-115 -65l-60 100l120 70l-120 70l60 100l115 -65v125h125v-125l115 65l60 -100l-120 -70l120 -70l-60 -100z" />
    <glyph glyph-name="plus" unicode="+" horiz-adv-x="540" 
d="M340 420h170v-140h-170v-170h-140v170h-170v140h170v170h140v-170z" />
    <glyph glyph-name="comma" unicode="," horiz-adv-x="240" 
d="M30 150h180v-140l-70 -110h-90l40 100h-60v150z" />
    <glyph glyph-name="hyphen" unicode="-" horiz-adv-x="470" 
d="M30 280v140h410v-140h-410z" />
    <glyph glyph-name="period" unicode="." horiz-adv-x="240" 
d="M30 150h180v-150h-180v150z" />
    <glyph glyph-name="slash" unicode="/" horiz-adv-x="470" 
d="M0 0l300 700h170l-290 -700h-180z" />
    <glyph glyph-name="zero" unicode="0" horiz-adv-x="670" 
d="M450 510q0 60 -60 60h-110q-60 0 -60 -60v-320q0 -60 60 -60h110q60 0 60 60v320zM630 190q0 -105 -47.5 -152.5t-152.5 -47.5h-190q-105 0 -152.5 47.5t-47.5 152.5v320q0 105 47.5 152.5t152.5 47.5h190q105 0 152.5 -47.5t47.5 -152.5v-320z" />
    <glyph glyph-name="one" unicode="1" horiz-adv-x="405" 
d="M165 0v545l-115 -40l-50 115l185 80h160v-700h-180z" />
    <glyph glyph-name="two" unicode="2" horiz-adv-x="590" 
d="M560 480q0 -32 -9 -58t-25 -48t-38 -41t-48 -38l-215 -155h335v-140h-540v190l360 260v50q0 60 -60 60h-280v140h320q105 0 152.5 -47.5t47.5 -152.5v-20z" />
    <glyph glyph-name="three" unicode="3" horiz-adv-x="610" 
d="M580 180q0 -98 -46 -144t-144 -46q-60 0 -125.5 3t-119.5 7q-64 4 -125 10v135l118 -8q51 -3 107.5 -5t104.5 -2q23 0 36.5 13.5t13.5 36.5v40q0 60 -60 60h-210v140h190q60 0 60 60v20q0 60 -60 60h-290v140h340q98 0 144 -44.5t46 -135.5q0 -60 -27.5 -97.5
t-72.5 -52.5q22 -6 44 -19t38.5 -35t27 -53.5t10.5 -72.5v-10z" />
    <glyph glyph-name="four" unicode="4" horiz-adv-x="650" 
d="M390 140h-370v140l240 420h200l-240 -420h170v150h180v-150h70v-140h-70v-140h-180v140z" />
    <glyph glyph-name="five" unicode="5" horiz-adv-x="600" 
d="M230 560v-130h160q98 0 144 -44.5t46 -135.5v-70q0 -98 -46 -144t-144 -46q-60 0 -125.5 3t-119.5 7q-64 4 -125 10v135l118 -8q51 -3 107.5 -5t104.5 -2q23 0 36.5 13.5t13.5 36.5v50q0 60 -60 60h-290v410h480v-140h-300z" />
    <glyph glyph-name="six" unicode="6" 
d="M220 430q29 6 59 10q26 4 55.5 7t55.5 3h70q68 0 109 -41t41 -109v-130q0 -91 -46 -135.5t-144 -44.5h-190q-98 0 -144 44.5t-46 135.5v350q0 98 46 144t144 46q49 0 106.5 -3t107.5 -7q58 -4 116 -10v-135q-55 3 -109 7q-23 1 -47.5 2.5t-48.5 3t-45.5 2t-39.5 0.5
q-23 0 -36.5 -13.5t-13.5 -36.5v-90zM340 310q-21 0 -42.5 -1.5t-38.5 -3.5q-20 -3 -39 -5v-110q0 -60 60 -60h90q60 0 60 60v85q0 15 -10 25t-25 10h-55z" />
    <glyph glyph-name="seven" unicode="7" horiz-adv-x="560" 
d="M10 700h540v-140l-230 -560h-200l240 560h-350v140z" />
    <glyph glyph-name="eight" unicode="8" horiz-adv-x="670" 
d="M270 280q-60 0 -60 -60v-40q0 -23 13.5 -36.5t36.5 -13.5h150q23 0 36.5 13.5t13.5 36.5v40q0 60 -60 60h-130zM290 570q-60 0 -60 -60v-30q0 -60 60 -60h90q60 0 60 60v30q0 60 -60 60h-90zM640 180q0 -98 -46 -144t-144 -46h-230q-98 0 -144 46t-46 144v10
q0 41 10.5 72.5t27 53.5t38 35t44.5 19q-45 15 -72.5 52.5t-27.5 97.5v10q0 91 46 135.5t144 44.5h190q98 0 144 -44.5t46 -135.5v-10q0 -60 -27.5 -97.5t-72.5 -52.5q22 -6 44 -19t38.5 -35t27 -53.5t10.5 -72.5v-10z" />
    <glyph glyph-name="nine" unicode="9" 
d="M410 270q-29 -6 -59 -10q-26 -4 -55.5 -7t-55.5 -3h-70q-68 0 -109 41t-41 109v130q0 91 46 135.5t144 44.5h190q98 0 144 -44.5t46 -135.5v-350q0 -98 -46 -144t-144 -46q-49 0 -106.5 3t-107.5 7q-58 4 -116 10v135q55 -4 109 -8q46 -3 95.5 -5t85.5 -2q23 0 36.5 13.5
t13.5 36.5v90zM410 510q0 60 -60 60h-90q-60 0 -60 -60v-85q0 -15 10 -25t25 -10h55q20 0 42 1.5t39 3.5q20 2 39 5v110z" />
    <glyph glyph-name="colon" unicode=":" horiz-adv-x="240" 
d="M30 150h180v-150h-180v150zM30 530h180v-150h-180v150z" />
    <glyph glyph-name="semicolon" unicode=";" horiz-adv-x="240" 
d="M30 530h180v-150h-180v150zM30 150h180v-140l-70 -110h-90l50 100h-70v150z" />
    <glyph glyph-name="less" unicode="&#x3c;" horiz-adv-x="510" 
d="M470 150v-150l-450 200v130l450 200v-150l-285 -115z" />
    <glyph glyph-name="equal" unicode="=" horiz-adv-x="490" 
d="M40 390v130h410v-130h-410zM40 180v130h410v-130h-410z" />
    <glyph glyph-name="greater" unicode="&#x3e;" horiz-adv-x="510" 
d="M325 265l-285 115v150l450 -200v-130l-450 -200v150z" />
    <glyph glyph-name="question" unicode="?" horiz-adv-x="580" 
d="M145 210v140l235 85v85q0 23 -13.5 36.5t-36.5 13.5q-44 0 -98.5 -2.5t-104.5 -5.5q-58 -4 -117 -7v135q58 6 120 10q53 4 116.5 7t123.5 3q98 0 144 -46t46 -144v-45q0 -38 -7 -65.5t-23 -48.5t-42 -37t-63 -29l-100 -35v-50h-180zM145 150h180v-150h-180v150z" />
    <glyph glyph-name="at" unicode="@" horiz-adv-x="770" 
d="M410 170q-68 0 -109 41t-41 109v35q0 68 41 109t109 41h170v30q0 19 -13 32t-32 13h-265q-30 0 -50 -20t-20 -50v-320q0 -30 20 -50t50 -20q57 0 123 2t123 5l134 8v-125q-64 -6 -131 -10q-57 -4 -126 -7t-133 -3q-106 0 -163 57t-57 163v280q0 106 57 163t163 57h320
q75 0 117.5 -42.5t42.5 -117.5v-370h-140l-10 50q-24 -17 -50 -30q-23 -11 -51.5 -20.5t-58.5 -9.5h-20zM480 305q15 0 32.5 3t32.5 7q18 4 35 10v55h-115q-15 0 -25 -10t-10 -25v-5q0 -15 10 -25t25 -10h15z" />
    <glyph glyph-name="A" unicode="A" horiz-adv-x="710" 
d="M185 0h-195l265 700h200l265 -700h-195l-45 125h-250zM275 255h160l-80 235z" />
    <glyph glyph-name="B" unicode="B" horiz-adv-x="710" 
d="M60 700h400q98 0 144 -44.5t46 -135.5q0 -60 -26 -97.5t-64 -52.5q22 -6 44 -19t38.5 -35t27 -53.5t10.5 -72.5q0 -98 -46 -144t-144 -46h-430v700zM500 220q0 60 -60 60h-200v-140h200q60 0 60 60v20zM470 500q0 60 -60 60h-170v-140h170q60 0 60 60v20z" />
    <glyph glyph-name="C" unicode="C" horiz-adv-x="620" 
d="M230 -10q-98 0 -144 46t-46 144v320q0 105 47.5 152.5t152.5 47.5h360v-140h-320q-60 0 -60 -60v-320q0 -23 13.5 -36.5t36.5 -13.5q19 0 44 0.5t52 1.5t54.5 2t53.5 3q61 4 126 8v-135q-67 -6 -133 -10q-57 -4 -120.5 -7t-116.5 -3z" />
    <glyph glyph-name="D" unicode="D" horiz-adv-x="720" 
d="M450 700q113 0 171.5 -58.5t58.5 -171.5v-240q0 -113 -58.5 -171.5t-171.5 -58.5h-390v700h390zM500 470q0 90 -90 90h-170v-420h170q90 0 90 90v240z" />
    <glyph glyph-name="E" unicode="E" horiz-adv-x="635" 
d="M615 0h-555v700h555v-140h-375v-135h295v-140h-295v-145h375v-140z" />
    <glyph glyph-name="F" unicode="F" horiz-adv-x="625" 
d="M240 0h-180v700h555v-140h-375v-165h295v-140h-295v-255z" />
    <glyph glyph-name="G" unicode="G" horiz-adv-x="700" 
d="M230 -10q-98 0 -144 46t-46 144v320q0 105 47.5 152.5t152.5 47.5h360v-140h-320q-60 0 -60 -60v-320q0 -23 13.5 -36.5t36.5 -13.5q30 0 66.5 0.5t68.5 1.5q37 1 75 3v145h-130v120h310v-385q-75 -8 -151 -13q-65 -5 -140 -8.5t-139 -3.5z" />
    <glyph glyph-name="H" unicode="H" horiz-adv-x="730" 
d="M670 0h-180v285h-250v-285h-180v700h180v-275h250v275h180v-700z" />
    <glyph glyph-name="I" unicode="I" horiz-adv-x="420" 
d="M390 0h-360v140h90v420h-90v140h360v-140h-90v-420h90v-140z" />
    <glyph glyph-name="J" unicode="J" horiz-adv-x="460" 
d="M10 135q31 -2 61 -3q26 -1 53 -1.5t46 -0.5q23 0 36.5 13.5t13.5 36.5v380h-130v140h310v-520q0 -98 -46 -144t-144 -46q-34 0 -69.5 1.5t-64.5 3.5q-34 2 -66 5v135z" />
    <glyph glyph-name="K" unicode="K" horiz-adv-x="676" 
d="M240 0h-180v700h180v-275h90l156 275h190l-196 -345l195 -355h-190l-155 285h-90v-285z" />
    <glyph glyph-name="L" unicode="L" horiz-adv-x="615" 
d="M240 140h365v-140h-545v700h180v-560z" />
    <glyph glyph-name="M" unicode="M" horiz-adv-x="900" 
d="M660 390l-140 -250h-140l-140 250v-390h-180v700h190l200 -370l200 370h190v-700h-180v390z" />
    <glyph glyph-name="N" unicode="N" horiz-adv-x="730" 
d="M670 0h-190l-240 420v-420h-180v700h190l240 -420v420h180v-700z" />
    <glyph glyph-name="O" unicode="O" horiz-adv-x="730" 
d="M510 510q0 60 -60 60h-170q-60 0 -60 -60v-320q0 -60 60 -60h170q60 0 60 60v320zM690 190q0 -105 -47.5 -152.5t-152.5 -47.5h-250q-105 0 -152.5 47.5t-47.5 152.5v320q0 105 47.5 152.5t152.5 47.5h250q105 0 152.5 -47.5t47.5 -152.5v-320z" />
    <glyph glyph-name="P" unicode="P" horiz-adv-x="710" 
d="M60 700h420q105 0 152.5 -47.5t47.5 -152.5v-100q0 -105 -47.5 -152.5t-152.5 -47.5h-240v-200h-180v700zM500 500q0 60 -60 60h-200v-220h200q60 0 60 60v100z" />
    <glyph glyph-name="Q" unicode="Q" horiz-adv-x="730" 
d="M270 -10h-30q-105 0 -152.5 47.5t-47.5 152.5v320q0 105 47.5 152.5t152.5 47.5h250q105 0 152.5 -47.5t47.5 -152.5v-320q0 -105 -47.5 -152.5t-152.5 -47.5h-50v-10q0 -15 10 -25t25 -10h75v-105q-21 -3 -43 -5q-19 -2 -41.5 -3.5t-45.5 -1.5q-68 0 -109 41t-41 109v10
zM510 510q0 60 -60 60h-170q-60 0 -60 -60v-320q0 -60 60 -60h170q60 0 60 60v320z" />
    <glyph glyph-name="R" unicode="R" horiz-adv-x="720" 
d="M60 700h420q105 0 152.5 -47.5t47.5 -152.5v-90q0 -83 -27.5 -129t-87.5 -61l125 -220h-195l-115 210h-140v-210h-180v700zM500 500q0 60 -60 60h-200v-210h200q60 0 60 60v90z" />
    <glyph glyph-name="S" unicode="S" horiz-adv-x="670" 
d="M210 480q0 -60 60 -60h180q98 0 144 -46t46 -144v-50q0 -98 -46 -144t-144 -46q-30 0 -63.5 1t-68 2.5l-69 3t-65.5 3.5q-73 4 -145 10v135q73 -4 142 -8q59 -3 122 -5t107 -2q23 0 36.5 13.5t13.5 36.5v90h-230q-105 0 -152.5 47.5t-47.5 152.5v30q0 105 47.5 152.5
t152.5 47.5h351v-140h-311q-60 0 -60 -60v-20z" />
    <glyph glyph-name="T" unicode="T" horiz-adv-x="620" 
d="M400 0h-180v560h-210v140h600v-140h-210v-560z" />
    <glyph glyph-name="U" unicode="U" horiz-adv-x="750" 
d="M510 700h180v-510q0 -105 -47.5 -152.5t-152.5 -47.5h-230q-105 0 -152.5 47.5t-47.5 152.5v510h180v-510q0 -60 60 -60h150q60 0 60 60v510z" />
    <glyph glyph-name="V" unicode="V" horiz-adv-x="710" 
d="M355 210l170 490h195l-265 -700h-200l-265 700h195z" />
    <glyph glyph-name="W" unicode="W" horiz-adv-x="980" 
d="M570 700l120 -450l105 450h195l-190 -700h-190l-120 435l-120 -435h-190l-190 700h195l105 -450l120 450h160z" />
    <glyph glyph-name="X" unicode="X" horiz-adv-x="660" 
d="M465 700h200l-225 -350l230 -350h-200l-140 220l-140 -220h-200l230 350l-225 350h199l136 -220z" />
    <glyph glyph-name="Y" unicode="Y" horiz-adv-x="670" 
d="M-20 700h190l165 -340l165 340h190l-265 -515v-185h-180v185z" />
    <glyph glyph-name="Z" unicode="Z" horiz-adv-x="610" 
d="M590 560l-350 -420h350v-140h-570v140l350 420h-350v140h570v-140z" />
    <glyph glyph-name="bracketleft" unicode="[" horiz-adv-x="360" 
d="M60 800h300v-140h-120v-730h120v-140h-300v1010z" />
    <glyph glyph-name="backslash" unicode="\" horiz-adv-x="470" 
d="M290 0l-290 700h170l300 -700h-180z" />
    <glyph glyph-name="bracketright" unicode="]" horiz-adv-x="360" 
d="M300 -210h-300v140h120v730h-120v140h300v-1010z" />
    <glyph glyph-name="asciicircum" unicode="^" horiz-adv-x="510" 
d="M330 700l180 -300h-150l-105 180l-105 -180h-150l180 300h150z" />
    <glyph glyph-name="underscore" unicode="_" horiz-adv-x="470" 
d="M30 -190v140h410v-140h-410z" />
    <glyph glyph-name="grave" unicode="`" horiz-adv-x="250" 
d="M110 540l-110 170h170l60 -170h-120z" />
    <glyph glyph-name="a" unicode="a" horiz-adv-x="595" 
d="M260 130q19 0 40 3t39 7q21 4 41 10v60h-145q-15 0 -25 -10t-10 -25v-10q0 -15 10 -25t25 -10h25zM175 -10q-68 0 -109 41t-41 109v45q0 68 41 109t109 41h205v40q0 15 -10 25t-25 10q-40 0 -86.5 -2.5t-87.5 -5.5q-48 -4 -96 -7v125q55 6 112 10q49 4 107 7t111 3
q68 0 109 -41t41 -109v-390h-155l-10 50q-26 -17 -56 -30q-26 -11 -58 -20.5t-66 -9.5h-35z" />
    <glyph glyph-name="b" unicode="b" horiz-adv-x="620" 
d="M405 370q0 15 -10 25t-25 10h-25q-25 0 -46 -1.5t-38 -3.5q-19 -3 -36 -5v-260h140q40 0 40 40v195zM580 160q0 -75 -42.5 -117.5t-117.5 -42.5h-370v700h175v-180q29 6 59 10q26 4 55.5 7t55.5 3h35q68 0 109 -41t41 -109v-230z" />
    <glyph glyph-name="c" unicode="c" horiz-adv-x="550" 
d="M40 370q0 75 42.5 117.5t117.5 42.5h320v-135h-265q-40 0 -40 -40v-195q0 -15 10 -25t25 -10q39 0 86 2t88 5l96 8v-130q-56 -6 -113 -10q-49 -4 -106.5 -7t-110.5 -3q-68 0 -109 41t-41 109v230z" />
    <glyph glyph-name="d" unicode="d" 
d="M425 0l-10 50q-26 -17 -56 -30q-26 -11 -58 -20.5t-66 -9.5h-45q-68 0 -109 41t-41 109v230q0 75 42.5 117.5t117.5 42.5h205v170h175v-700h-155zM405 395h-150q-40 0 -40 -40v-185q0 -15 10 -25t25 -10h35q19 0 40 3t39 7q21 4 41 10v240z" />
    <glyph glyph-name="e" unicode="e" horiz-adv-x="600" 
d="M255 415q-40 0 -40 -40v-55h170v55q0 40 -40 40h-90zM40 380q0 75 42.5 117.5t117.5 42.5h200q75 0 117.5 -42.5t42.5 -117.5v-185h-345v-40q0 -15 10 -25t25 -10q43 0 93.5 2t94.5 5l102 8v-125q-58 -6 -119 -10q-52 -4 -113 -7t-118 -3q-68 0 -109 41t-41 109v240z" />
    <glyph glyph-name="f" unicode="f" horiz-adv-x="450" 
d="M300 575q-15 0 -25 -10t-10 -25v-50h165v-135h-165v-355h-175v355h-70v135h70v70q0 68 41 109t109 41q34 0 75.5 -1.5t78.5 -3.5q43 -3 86 -5v-135q-29 2 -60 5q-26 2 -58 3.5t-62 1.5z" />
    <glyph glyph-name="g" unicode="g" horiz-adv-x="620" 
d="M40 370q0 75 42.5 117.5t117.5 42.5h370v-560q0 -68 -41 -109t-109 -41q-57 0 -118 3t-113 7q-61 4 -119 10v130l102 -8q44 -3 94 -5t94 -2q15 0 25 10t10 25v50q-29 -6 -59 -10q-26 -4 -55.5 -7t-55.5 -3h-35q-68 0 -109 41t-41 109v200zM215 190q0 -15 10 -25t25 -10
h25q24 0 45.5 1.5t38.5 3.5q19 2 36 5v230h-140q-40 0 -40 -40v-165z" />
    <glyph glyph-name="h" unicode="h" 
d="M345 405q-21 0 -42.5 -1.5t-38.5 -3.5q-20 -3 -39 -5v-395h-175v700h175v-180q29 6 59 10q26 4 55.5 7t55.5 3h45q68 0 109 -41t41 -109v-390h-175v370q0 15 -10 25t-25 10h-35z" />
    <glyph glyph-name="i" unicode="i" horiz-adv-x="320" 
d="M270 510v-510h-175v375h-75v135h250zM95 710h175v-140h-175v140z" />
    <glyph glyph-name="j" unicode="j" horiz-adv-x="300" 
d="M250 -30q0 -68 -41 -109t-109 -41q-34 0 -68 1.5t-61 3.5q-32 2 -61 5v130h130q15 0 25 10t10 25v515h175v-540zM75 710h175v-140h-175v140z" />
    <glyph glyph-name="k" unicode="k" horiz-adv-x="600" 
d="M225 210v-210h-175v700h175v-355h80l110 185h185l-150 -255l150 -275h-185l-115 210h-75z" />
    <glyph glyph-name="l" unicode="l" horiz-adv-x="340" 
d="M50 700h175v-535q0 -15 10 -25t25 -10h60v-130q-20 -3 -41 -5q-18 -2 -39 -3.5t-40 -1.5q-68 0 -109 41t-41 109v560z" />
    <glyph glyph-name="m" unicode="m" horiz-adv-x="925" 
d="M670 395q-17 0 -37 -3t-37 -7q-20 -4 -41 -10v-375h-175v360q0 15 -10 25t-25 10h-5q-17 0 -37 -3t-37 -7q-20 -4 -41 -10v-375h-175v530h155l10 -50q26 17 56 30q26 11 58 20.5t66 9.5h10q45 0 75.5 -17t49.5 -43q25 17 56 30q26 11 61.5 20.5t77.5 9.5h10q68 0 109 -41
t41 -109v-390h-175v360q0 15 -10 25t-25 10h-5z" />
    <glyph glyph-name="n" unicode="n" 
d="M205 530l10 -50q26 17 56 30q26 11 58 20.5t66 9.5h45q68 0 109 -41t41 -109v-390h-175v360q0 15 -10 25t-25 10h-35q-19 0 -40 -3t-39 -7q-21 -4 -41 -10v-375h-175v530h155z" />
    <glyph glyph-name="o" unicode="o" 
d="M590 150q0 -75 -42.5 -117.5t-117.5 -42.5h-230q-75 0 -117.5 42.5t-42.5 117.5v230q0 75 42.5 117.5t117.5 42.5h230q75 0 117.5 -42.5t42.5 -117.5v-230zM415 365q0 40 -40 40h-120q-40 0 -40 -40v-200q0 -40 40 -40h120q40 0 40 40v200z" />
    <glyph glyph-name="p" unicode="p" 
d="M225 135h150q40 0 40 40v185q0 15 -10 25t-25 10h-35q-19 0 -40 -3t-39 -7q-21 -4 -41 -10v-240zM225 0v-170h-175v700h155l10 -50q26 17 56 30q26 11 58 20.5t66 9.5h45q68 0 109 -41t41 -109v-230q0 -75 -42.5 -117.5t-117.5 -42.5h-205z" />
    <glyph glyph-name="q" unicode="q" horiz-adv-x="620" 
d="M215 160q0 -15 10 -25t25 -10h25q24 0 45.5 1.5t38.5 3.5q19 2 36 5v260h-140q-40 0 -40 -40v-195zM40 370q0 75 42.5 117.5t117.5 42.5h370v-700h-175v180q-29 -6 -59 -10q-26 -4 -55.5 -7t-55.5 -3h-35q-68 0 -109 41t-41 109v230z" />
    <glyph glyph-name="r" unicode="r" horiz-adv-x="460" 
d="M205 530l10 -65q23 20 51 37q24 14 56.5 26t72.5 12h45v-155h-85q-26 0 -49.5 -5t-41.5 -10q-21 -7 -39 -15v-355h-175v530h155z" />
    <glyph glyph-name="s" unicode="s" horiz-adv-x="580" 
d="M195 365q0 -15 10 -25t25 -10h180q68 0 109 -41t41 -109v-40q0 -68 -41 -109t-109 -41q-64 0 -131 3t-123 7q-65 4 -126 10v130q54 -4 109 -8q48 -3 104 -5t107 -2q15 0 25 10t10 25v35h-215q-68 0 -109 41t-41 109v35q0 68 41 109t109 41h340v-130h-280q-15 0 -25 -10
t-10 -25z" />
    <glyph glyph-name="t" unicode="t" horiz-adv-x="440" 
d="M255 530h125v-135h-125v-230q0 -15 10 -25t25 -10h130v-130q-29 -3 -61 -5q-27 -2 -61 -3.5t-68 -1.5q-68 0 -109 41t-41 109v255h-60v135h60l20 120h155v-120z" />
    <glyph glyph-name="u" unicode="u" horiz-adv-x="640" 
d="M435 0l-10 50q-26 -17 -56 -30q-26 -11 -58 -20.5t-66 -9.5h-45q-68 0 -109 41t-41 109v390h175v-360q0 -15 10 -25t25 -10h35q19 0 40 3t39 7q21 4 41 10v375h175v-530h-155z" />
    <glyph glyph-name="v" unicode="v" horiz-adv-x="580" 
d="M405 530h185l-200 -530h-200l-200 530h185l115 -360z" />
    <glyph glyph-name="w" unicode="w" horiz-adv-x="880" 
d="M610 210l90 320h190l-165 -530h-185l-100 320l-100 -320h-185l-165 530h190l90 -320l90 320h160z" />
    <glyph glyph-name="x" unicode="x" horiz-adv-x="550" 
d="M360 530h195l-160 -265l165 -265h-195l-90 160l-90 -160h-195l165 265l-160 265h195l85 -160z" />
    <glyph glyph-name="y" unicode="y" horiz-adv-x="570" 
d="M405 530h185l-200 -550q-29 -79 -75 -119.5t-125 -40.5q-19 0 -41.5 1.5t-42.5 3.5q-23 2 -46 5v130h90q38 0 49.5 21t-4.5 59l-205 490h185l125 -340z" />
    <glyph glyph-name="z" unicode="z" horiz-adv-x="535" 
d="M515 395l-275 -260h275v-135h-495v135l275 260h-275v135h495v-135z" />
    <glyph glyph-name="braceleft" unicode="{" horiz-adv-x="370" 
d="M90 650q0 68 41 109t109 41h130v-140h-65q-15 0 -25 -10t-10 -25v-205q0 -42 -22.5 -74t-67.5 -51q45 -19 67.5 -51t22.5 -74v-205q0 -15 10 -25t25 -10h65v-140h-130q-68 0 -109 41t-41 109v250q0 15 -10 25t-25 10h-45v140h45q15 0 25 10t10 25v250z" />
    <glyph glyph-name="bar" unicode="|" horiz-adv-x="300" 
d="M240 -170h-180v870h180v-870z" />
    <glyph glyph-name="braceright" unicode="}" horiz-adv-x="370" 
d="M280 400q0 -15 10 -25t25 -10h45v-140h-45q-15 0 -25 -10t-10 -25v-250q0 -68 -41 -109t-109 -41h-130v140h65q15 0 25 10t10 25v205q0 42 22.5 74t67.5 51q-45 19 -67.5 51t-22.5 74v205q0 15 -10 25t-25 10h-65v140h130q68 0 109 -41t41 -109v-250z" />
    <glyph glyph-name="asciitilde" unicode="~" horiz-adv-x="501" 
d="M10 330q14 35 36 62q19 23 48 43t71 20q32 0 52.5 -9.5t37 -20.5t32 -20.5t38.5 -9.5q19 0 35 8t29 19q14 12 27 28l75 -80q-15 -36 -37 -63q-19 -23 -48 -42.5t-71 -19.5q-32 0 -52.5 9.5t-37 20.5t-32.5 20.5t-38 9.5q-19 0 -35.5 -8.5t-28.5 -19.5q-14 -12 -26 -27z
" />
    <glyph glyph-name="exclamdown" unicode="&#xa1;" horiz-adv-x="280" 
d="M50 530h180v-150h-180v150zM210 320l20 -210v-280h-180v280l20 210h140z" />
    <glyph glyph-name="cent" unicode="&#xa2;" horiz-adv-x="550" 
d="M239 -9q-13 -1 -25.5 -1h-23.5q-68 0 -109 41t-41 109v230q0 75 42.5 117.5t117.5 42.5h40l-10 90h150l-10 -90h150v-135h-265q-40 0 -40 -40v-195q0 -15 10 -25t25 -10q39 0 86 2t88 5l96 8v-130q-20 -2 -44 -4q-20 -2 -47.5 -4t-58.5 -4l10 -88h-150z" />
    <glyph glyph-name="sterling" unicode="&#xa3;" horiz-adv-x="565" 
d="M295 575q-15 0 -25 -10t-10 -25v-110h155v-135h-155v-55q0 -26 -5 -45t-10 -31q-7 -14 -15 -24h325v-140h-535v120q65 0 65 55v120h-70v135h70v130q0 68 41 109t109 41q38 0 84 -1.5t88 -3.5q48 -3 98 -5v-135q-35 2 -71 5q-31 2 -68 3.5t-71 1.5z" />
    <glyph glyph-name="currency" unicode="&#xa4;" horiz-adv-x="730" 
d="M260 0h-180v110h-70l10 105h60v40h-70l10 109h60v336h420q105 0 152.5 -47.5t47.5 -152.5v-40q0 -106 -47 -155.5t-153 -49.5h-240v-40h260v-105h-260v-110zM520 500q0 60 -60 60h-200v-200h200q60 0 60 60v80z" />
    <glyph glyph-name="yen" unicode="&#xa5;" horiz-adv-x="670" 
d="M245 0v130h-155v105h130l-20 40h-110v105h55l-165 320h190l165 -340l165 340h190l-165 -320h55v-105h-110l-20 -40h130v-105h-155v-130h-180z" />
    <glyph glyph-name="brokenbar" unicode="&#xa6;" horiz-adv-x="300" 
d="M240 330h-180v370h180v-370zM60 -170v370h180v-370h-180z" />
    <glyph glyph-name="section" unicode="&#xa7;" horiz-adv-x="590" 
d="M30 550q0 68 41 109t109 41h320v-130h-255q-15 0 -25 -10t-10 -25v-20q0 -29 40 -35l160 -25q72 -11 111 -48.5t39 -101.5v-60q0 -38 -15 -69t-45 -46q30 -19 45 -47t15 -58v-55q0 -68 -41 -109t-109 -41q-64 0 -129.5 3t-119.5 7q-62 4 -121 10v135q50 -4 102 -8
q45 -3 98.5 -5t104.5 -2q15 0 25 10t10 25v50l-200 30q-72 11 -111 48.5t-39 101.5v65q0 38 15 69t45 46q-30 19 -45 47t-15 58v40zM210 245q0 -29 40 -35l95 -15q15 0 25 10t10 25v90l-135 20q-15 0 -25 -10t-10 -25v-60z" />
    <glyph glyph-name="dieresis" unicode="&#xa8;" horiz-adv-x="400" 
d="M230 805h170v-140h-170v140zM0 805h170v-140h-170v140z" />
    <glyph glyph-name="copyright" unicode="&#xa9;" horiz-adv-x="850" 
d="M20 490q0 106 57 163t163 57h370q106 0 163 -57t57 -163v-280q0 -106 -57 -163t-163 -57h-370q-106 0 -163 57t-57 163v280zM680 520q0 30 -20 50t-50 20h-370q-30 0 -50 -20t-20 -50v-340q0 -30 20 -50t50 -20h370q30 0 50 20t20 50v340zM595 170q-35 -4 -74 -8
q-33 -3 -73.5 -5t-82.5 -2q-57 0 -88.5 31.5t-31.5 88.5v135q0 60 32.5 92.5t92.5 32.5h225v-100h-175q-35 0 -35 -35v-115q0 -30 30 -30q28 0 59.5 2t58.5 5q32 4 62 8v-100z" />
    <glyph glyph-name="ordfeminine" unicode="&#xaa;" horiz-adv-x="365" 
d="M160 425q11 0 22.5 2t21.5 5q11 4 21 8v50h-70q-25 0 -25 -25v-15q0 -25 25 -25h5zM345 350h-105l-10 30q-18 -11 -37 -20q-17 -8 -37.5 -14t-40.5 -6h-5q-45 0 -72.5 27.5t-27.5 72.5v30q0 45 27.5 72.5t72.5 27.5h115v30q0 30 -30 30q-21 0 -47 -2.5t-49 -5.5
q-27 -4 -54 -7v80q27 3 57 7q26 3 59 5.5t69 2.5q57 0 86 -28t29 -77v-255z" />
    <glyph glyph-name="guillemotleft" unicode="&#xab;" horiz-adv-x="611" 
d="M341 90l-101 -90l-230 265l230 265l101 -89l-152 -176zM439 265l152 -175l-101 -90l-230 265l230 265l101 -89z" />
    <glyph glyph-name="logicalnot" unicode="&#xac;" horiz-adv-x="540" 
d="M500 220h-140v90h-320v140h460v-230z" />
    <glyph glyph-name="uni00AD" unicode="&#xad;" horiz-adv-x="470" 
d="M30 280v140h410v-140h-410z" />
    <glyph glyph-name="registered" unicode="&#xae;" horiz-adv-x="850" 
d="M20 490q0 106 57 163t163 57h370q106 0 163 -57t57 -163v-280q0 -106 -57 -163t-163 -57h-370q-106 0 -163 57t-57 163v280zM680 520q0 30 -20 50t-50 20h-370q-30 0 -50 -20t-20 -50v-340q0 -30 20 -50t50 -20h370q30 0 50 20t20 50v340zM425 265h-40v-100h-140v370h255
q60 0 92.5 -32.5t32.5 -92.5v-10q0 -49 -19.5 -76.5t-45.5 -38.5l65 -120h-145zM450 355q35 0 35 35v20q0 35 -35 35h-65v-90h65z" />
    <glyph glyph-name="macron" unicode="&#xaf;" horiz-adv-x="300" 
d="M0 785h300v-120h-300v120z" />
    <glyph glyph-name="degree" unicode="&#xb0;" horiz-adv-x="390" 
d="M370 465q0 -60 -32.5 -92.5t-92.5 -32.5h-100q-60 0 -92.5 32.5t-32.5 92.5v120q0 60 32.5 92.5t92.5 32.5h100q60 0 92.5 -32.5t32.5 -92.5v-120zM250 585q0 35 -35 35h-40q-35 0 -35 -35v-120q0 -35 35 -35h40q35 0 35 35v120z" />
    <glyph glyph-name="plusminus" unicode="&#xb1;" horiz-adv-x="540" 
d="M340 440h170v-140h-170v-110h155v-140h-450v140h155v110h-170v140h170v150h140v-150z" />
    <glyph glyph-name="twosuperior" unicode="&#xb2;" horiz-adv-x="345" 
d="M325 594q0 -33 -14.5 -57t-40.5 -42l-95 -65h150v-90h-305v100l185 130v20q0 30 -30 30h-145v90h180q57 0 86 -28t29 -78v-10z" />
    <glyph glyph-name="threesuperior" unicode="&#xb3;" horiz-adv-x="350" 
d="M320 616q0 -31 -14.5 -50.5t-38.5 -27.5q24 -6 43.5 -27.5t19.5 -65.5q0 -49 -29 -77t-86 -28q-40 0 -75 2t-62 5q-32 4 -58 8v85l56 -8q24 -3 51.5 -5t52.5 -2q30 0 30 30t-30 30h-110v80h100q30 0 30 30t-30 30h-145v85h180q57 0 86 -26.5t29 -67.5z" />
    <glyph glyph-name="acute" unicode="&#xb4;" horiz-adv-x="260" 
d="M10 635l60 170h180l-110 -170h-130z" />
    <glyph glyph-name="mu" unicode="&#xb5;" horiz-adv-x="640" 
d="M50 530h176v-350q0 -15 10 -25t25 -10h34q19 0 40 3t39 7q21 4 41 10v365h175v-530h-155l-10 50q-26 -14 -56 -25q-26 -10 -58 -17.5t-66 -7.5h-19v-170h-176v700z" />
    <glyph glyph-name="mu" unicode="&#x3bc;" horiz-adv-x="640" 
d="M50 530h176v-350q0 -15 10 -25t25 -10h34q19 0 40 3t39 7q21 4 41 10v365h175v-530h-155l-10 50q-26 -14 -56 -25q-26 -10 -58 -17.5t-66 -7.5h-19v-170h-176v700z" />
    <glyph glyph-name="paragraph" unicode="&#xb6;" horiz-adv-x="690" 
d="M20 540q0 75 42.5 117.5t117.5 42.5h490v-140h-90v-730h-155v730h-60v-730h-155v430h-30q-75 0 -117.5 42.5t-42.5 117.5v120v0z" />
    <glyph glyph-name="periodcentered" unicode="&#xb7;" horiz-adv-x="300" 
d="M60 425h180v-150h-180v150z" />
    <glyph glyph-name="cedilla" unicode="&#xb8;" horiz-adv-x="220" 
d="M110 20v-40h10q49 0 74.5 -24t25.5 -66t-25.5 -66t-74.5 -24h-120v65h100q35 0 35 25t-35 25h-75v105h85z" />
    <glyph glyph-name="onesuperior" unicode="&#xb9;" horiz-adv-x="250" 
d="M100 340v270l-60 -20l-30 75l100 45h110v-370h-120z" />
    <glyph glyph-name="ordmasculine" unicode="&#xba;" horiz-adv-x="380" 
d="M360 465q0 -60 -32.5 -92.5t-92.5 -32.5h-90q-60 0 -92.5 32.5t-32.5 92.5v120q0 60 32.5 92.5t92.5 32.5h90q60 0 92.5 -32.5t32.5 -92.5v-120zM240 585q0 35 -35 35h-30q-35 0 -35 -35v-120q0 -35 35 -35h30q35 0 35 35v120z" />
    <glyph glyph-name="guillemotright" unicode="&#xbb;" horiz-adv-x="611" 
d="M20 441l101 89l230 -265l-230 -265l-101 90l152 175zM422 265l-152 176l101 89l230 -265l-230 -265l-101 90z" />
    <glyph glyph-name="onequarter" unicode="&#xbc;" horiz-adv-x="750" 
d="M70 0l400 700h150l-390 -700h-160zM100 340v270l-60 -20l-30 75l100 45h110v-370h-120zM585 65h-195v90l115 205h125l-115 -205h70v65h110v-65h35v-90h-35v-75h-110v75z" />
    <glyph glyph-name="onehalf" unicode="&#xbd;" horiz-adv-x="785" 
d="M70 0l400 700h150l-390 -700h-160zM100 340v270l-60 -20l-30 75l100 45h110v-370h-120zM755 244q0 -33 -14.5 -57t-40.5 -42l-95 -65h150v-90h-305v100l185 130v20q0 30 -30 30h-145v90h180q57 0 86 -28t29 -78v-10z" />
    <glyph glyph-name="threequarters" unicode="&#xbe;" horiz-adv-x="820" 
d="M140 0l400 700h150l-390 -700h-160zM655 65h-195v90l115 205h125l-115 -205h70v65h110v-65h35v-90h-35v-75h-110v75zM320 616q0 -31 -14.5 -50.5t-38.5 -27.5q24 -6 43.5 -27.5t19.5 -65.5q0 -49 -29 -77t-86 -28q-40 0 -75 2t-62 5q-32 4 -58 8v85l56 -8q24 -3 51.5 -5
t52.5 -2q30 0 30 30t-30 30h-110v80h100q30 0 30 30t-30 30h-145v85h180q57 0 86 -26.5t29 -67.5z" />
    <glyph glyph-name="questiondown" unicode="&#xbf;" horiz-adv-x="580" 
d="M435 320v-140l-235 -85v-85q0 -23 13.5 -36.5t36.5 -13.5q43 0 98 2t105 5q58 4 117 8v-135q-58 -6 -120 -10q-53 -4 -116.5 -7t-123.5 -3q-98 0 -144 46t-46 144v45q0 37 7 65t23 49t41.5 37t63.5 29l100 35v50h180zM435 380h-180v150h180v-150z" />
    <glyph glyph-name="Agrave" unicode="&#xc0;" horiz-adv-x="710" 
d="M0 0zM185 0h-195l265 700h200l265 -700h-195l-45 125h-250zM275 255h160l-80 235zM295 730l-110 170h170l60 -170h-120z" />
    <glyph glyph-name="Aacute" unicode="&#xc1;" horiz-adv-x="710" 
d="M0 0zM185 0h-195l265 700h200l265 -700h-195l-45 125h-250zM275 255h160l-80 235zM285 731l60 170h180l-110 -170h-130z" />
    <glyph glyph-name="Acircumflex" unicode="&#xc2;" horiz-adv-x="710" 
d="M0 0zM185 0h-195l265 700h200l265 -700h-195l-45 125h-250zM275 255h160l-80 235zM165 731l120 170h140l120 -170h-125l-65 80l-65 -80h-125z" />
    <glyph glyph-name="Atilde" unicode="&#xc3;" horiz-adv-x="710" 
d="M0 0zM185 0h-195l265 700h200l265 -700h-195l-45 125h-250zM275 255h160l-80 235zM530 841q-9 -32 -24 -58q-14 -22 -35.5 -39.5t-55.5 -17.5q-21 0 -36.5 8t-29 17t-26.5 17t-28 8q-14 0 -23 -6t-15 -14q-7 -9 -12 -20l-65 40q8 31 24 57q13 22 35 40t56 18
q21 0 36.5 -8t29 -17t26.5 -17t28 -8q13 0 22.5 6t15.5 14q7 9 12 20z" />
    <glyph glyph-name="Adieresis" unicode="&#xc4;" horiz-adv-x="710" 
d="M0 0zM185 0h-195l265 700h200l265 -700h-195l-45 125h-250zM275 255h160l-80 235zM385 871h170v-140h-170v140zM155 871h170v-140h-170v140z" />
    <glyph glyph-name="Aring" unicode="&#xc5;" horiz-adv-x="710" 
d="M0 0zM185 0h-195l265 700h200l265 -700h-195l-45 125h-250zM275 255h160l-80 235zM385 926q49 0 74.5 -24t25.5 -66v-15q0 -42 -25.5 -66t-74.5 -24h-60q-49 0 -74.5 24t-25.5 66v15q0 42 25.5 66t74.5 24h60zM400 831q0 30 -30 30h-30q-30 0 -30 -30v-5q0 -30 30 -30h30
q30 0 30 30v5z" />
    <glyph glyph-name="AE" unicode="&#xc6;" horiz-adv-x="995" 
d="M-10 0l265 700h720v-140h-335v-135h255v-140h-255v-145h335v-140h-515v125h-230l-45 -125h-195zM275 255h185v305h-80z" />
    <glyph glyph-name="Ccedilla" unicode="&#xc7;" horiz-adv-x="620" 
d="M40 0zM230 -10q-98 0 -144 46t-46 144v320q0 105 47.5 152.5t152.5 47.5h360v-140h-320q-60 0 -60 -60v-320q0 -23 13.5 -36.5t36.5 -13.5q19 0 44 0.5t52 1.5t54.5 2t53.5 3q61 4 126 8v-135q-67 -6 -133 -10q-57 -4 -120.5 -7t-116.5 -3zM360 20v-40h10q49 0 74.5 -24
t25.5 -66t-25.5 -66t-74.5 -24h-120v65h100q35 0 35 25t-35 25h-75v105h85z" />
    <glyph glyph-name="Egrave" unicode="&#xc8;" horiz-adv-x="635" 
d="M60 0zM615 0h-555v700h555v-140h-375v-135h295v-140h-295v-145h375v-140zM302 731l-110 170h170l60 -170h-120z" />
    <glyph glyph-name="Eacute" unicode="&#xc9;" horiz-adv-x="635" 
d="M60 0zM615 0h-555v700h555v-140h-375v-135h295v-140h-295v-145h375v-140zM267 731l60 170h180l-110 -170h-130z" />
    <glyph glyph-name="Ecircumflex" unicode="&#xca;" horiz-adv-x="635" 
d="M60 0zM615 0h-555v700h555v-140h-375v-135h295v-140h-295v-145h375v-140zM147 731l120 170h140l120 -170h-125l-65 80l-65 -80h-125z" />
    <glyph glyph-name="Edieresis" unicode="&#xcb;" horiz-adv-x="635" 
d="M60 0zM615 0h-555v700h555v-140h-375v-135h295v-140h-295v-145h375v-140zM367 901h170v-140h-170v140zM137 901h170v-140h-170v140z" />
    <glyph glyph-name="Igrave" unicode="&#xcc;" horiz-adv-x="420" 
d="M30 0zM390 0h-360v140h90v420h-90v140h360v-140h-90v-420h90v-140zM165 730l-110 170h170l60 -170h-120z" />
    <glyph glyph-name="Iacute" unicode="&#xcd;" horiz-adv-x="420" 
d="M30 0zM390 0h-360v140h90v420h-90v140h360v-140h-90v-420h90v-140zM140 731l60 170h180l-110 -170h-130z" />
    <glyph glyph-name="Icircumflex" unicode="&#xce;" horiz-adv-x="420" 
d="M20 0zM390 0h-360v140h90v420h-90v140h360v-140h-90v-420h90v-140zM20 730l120 170h140l120 -170h-125l-65 80l-65 -80h-125z" />
    <glyph glyph-name="Idieresis" unicode="&#xcf;" horiz-adv-x="420" 
d="M10 0zM390 0h-360v140h90v420h-90v140h360v-140h-90v-420h90v-140zM240 901h170v-140h-170v140zM10 901h170v-140h-170v140z" />
    <glyph glyph-name="Eth" unicode="&#xd0;" horiz-adv-x="740" 
d="M80 420v280h390q113 0 171.5 -58.5t58.5 -171.5v-240q0 -113 -58.5 -171.5t-171.5 -58.5h-390v285h-60v135h60zM520 470q0 90 -90 90h-170v-140h120v-135h-120v-145h170q90 0 90 90v240z" />
    <glyph glyph-name="Ntilde" unicode="&#xd1;" horiz-adv-x="730" 
d="M60 0zM670 0h-190l-240 420v-420h-180v700h190l240 -420v420h180v-700zM540 851q-9 -32 -24 -58q-14 -22 -35.5 -39.5t-55.5 -17.5q-21 0 -36.5 8t-29 17t-26.5 17t-28 8q-14 0 -23 -6t-15 -14q-7 -9 -12 -20l-65 40q8 31 24 57q13 22 35 40t56 18q21 0 36.5 -8t29 -17
t26.5 -17t28 -8q13 0 22.5 6t15.5 14q7 9 12 20z" />
    <glyph glyph-name="Ograve" unicode="&#xd2;" horiz-adv-x="730" 
d="M40 0zM510 510q0 60 -60 60h-170q-60 0 -60 -60v-320q0 -60 60 -60h170q60 0 60 60v320zM690 190q0 -105 -47.5 -152.5t-152.5 -47.5h-250q-105 0 -152.5 47.5t-47.5 152.5v320q0 105 47.5 152.5t152.5 47.5h250q105 0 152.5 -47.5t47.5 -152.5v-320zM320 740l-110 170
h170l60 -170h-120z" />
    <glyph glyph-name="Oacute" unicode="&#xd3;" horiz-adv-x="730" 
d="M40 0zM510 510q0 60 -60 60h-170q-60 0 -60 -60v-320q0 -60 60 -60h170q60 0 60 60v320zM690 190q0 -105 -47.5 -152.5t-152.5 -47.5h-250q-105 0 -152.5 47.5t-47.5 152.5v320q0 105 47.5 152.5t152.5 47.5h250q105 0 152.5 -47.5t47.5 -152.5v-320zM295 741l60 170h180
l-110 -170h-130z" />
    <glyph glyph-name="Ocircumflex" unicode="&#xd4;" horiz-adv-x="730" 
d="M40 0zM510 510q0 60 -60 60h-170q-60 0 -60 -60v-320q0 -60 60 -60h170q60 0 60 60v320zM690 190q0 -105 -47.5 -152.5t-152.5 -47.5h-250q-105 0 -152.5 47.5t-47.5 152.5v320q0 105 47.5 152.5t152.5 47.5h250q105 0 152.5 -47.5t47.5 -152.5v-320zM175 741l120 170
h140l120 -170h-125l-65 80l-65 -80h-125z" />
    <glyph glyph-name="Otilde" unicode="&#xd5;" horiz-adv-x="730" 
d="M40 0zM510 510q0 60 -60 60h-170q-60 0 -60 -60v-320q0 -60 60 -60h170q60 0 60 60v320zM690 190q0 -105 -47.5 -152.5t-152.5 -47.5h-250q-105 0 -152.5 47.5t-47.5 152.5v320q0 105 47.5 152.5t152.5 47.5h250q105 0 152.5 -47.5t47.5 -152.5v-320zM540 861
q-9 -32 -24 -58q-14 -22 -35.5 -39.5t-55.5 -17.5q-21 0 -36.5 8t-29 17t-26.5 17t-28 8q-14 0 -23 -6t-15 -14q-7 -9 -12 -20l-65 40q8 31 24 57q13 22 35 40t56 18q21 0 36.5 -8t29 -17t26.5 -17t28 -8q13 0 22.5 6t15.5 14q7 9 12 20z" />
    <glyph glyph-name="Odieresis" unicode="&#xd6;" horiz-adv-x="730" 
d="M40 0zM510 510q0 60 -60 60h-170q-60 0 -60 -60v-320q0 -60 60 -60h170q60 0 60 60v320zM690 190q0 -105 -47.5 -152.5t-152.5 -47.5h-250q-105 0 -152.5 47.5t-47.5 152.5v320q0 105 47.5 152.5t152.5 47.5h250q105 0 152.5 -47.5t47.5 -152.5v-320zM395 901h170v-140
h-170v140zM165 901h170v-140h-170v140z" />
    <glyph glyph-name="multiply" unicode="&#xd7;" horiz-adv-x="540" 
d="M270 450l130 130l100 -100l-130 -130l130 -130l-100 -100l-130 130l-130 -130l-100 100l130 130l-130 130l100 100z" />
    <glyph glyph-name="Oslash" unicode="&#xd8;" horiz-adv-x="730" 
d="M25 50l31 34q-16 41 -16 106v320q0 105 47.5 152.5t152.5 47.5h250q72 0 119 -24l26 29l70 -65l-32 -35q17 -40 17 -105v-320q0 -105 -47.5 -152.5t-152.5 -47.5h-250q-73 0 -119 23l-26 -28zM220 262l271 296q-15 12 -41 12h-170q-60 0 -60 -60v-248zM510 437l-272 -296
q14 -11 42 -11h170q60 0 60 60v247z" />
    <glyph glyph-name="Ugrave" unicode="&#xd9;" horiz-adv-x="750" 
d="M60 0zM510 700h180v-510q0 -105 -47.5 -152.5t-152.5 -47.5h-230q-105 0 -152.5 47.5t-47.5 152.5v510h180v-510q0 -60 60 -60h150q60 0 60 60v510zM330 721l-110 170h170l60 -170h-120z" />
    <glyph glyph-name="Uacute" unicode="&#xda;" horiz-adv-x="750" 
d="M60 0zM510 700h180v-510q0 -105 -47.5 -152.5t-152.5 -47.5h-230q-105 0 -152.5 47.5t-47.5 152.5v510h180v-510q0 -60 60 -60h150q60 0 60 60v510zM305 721l60 170h180l-110 -170h-130z" />
    <glyph glyph-name="Ucircumflex" unicode="&#xdb;" horiz-adv-x="750" 
d="M60 0zM510 700h180v-510q0 -105 -47.5 -152.5t-152.5 -47.5h-230q-105 0 -152.5 47.5t-47.5 152.5v510h180v-510q0 -60 60 -60h150q60 0 60 60v510zM185 731l120 170h140l120 -170h-125l-65 80l-65 -80h-125z" />
    <glyph glyph-name="Udieresis" unicode="&#xdc;" horiz-adv-x="750" 
d="M60 0zM510 700h180v-510q0 -105 -47.5 -152.5t-152.5 -47.5h-230q-105 0 -152.5 47.5t-47.5 152.5v510h180v-510q0 -60 60 -60h150q60 0 60 60v510zM405 891h170v-140h-170v140zM175 891h170v-140h-170v140z" />
    <glyph glyph-name="Yacute" unicode="&#xdd;" horiz-adv-x="670" 
d="M0 0zM-20 700h190l165 -340l165 340h190l-265 -515v-185h-180v185zM255 721l60 170h180l-110 -170h-130z" />
    <glyph glyph-name="Thorn" unicode="&#xde;" horiz-adv-x="730" 
d="M700 270q0 -105 -47.5 -152.5t-152.5 -47.5h-260v-80h-180v720h180v-80h260q105 0 152.5 -47.5t47.5 -152.5v-160zM520 430q0 60 -60 60h-220v-280h220q60 0 60 60v160z" />
    <glyph glyph-name="germandbls" unicode="&#xdf;" horiz-adv-x="620" 
d="M295 290v135h10q40 0 40 40v70q0 40 -40 40h-40q-40 0 -40 -40v-535h-175v550q0 75 42.5 117.5t117.5 42.5h150q75 0 117.5 -42.5t42.5 -117.5v-90q0 -55 -30 -85q49 -11 79.5 -44.5t30.5 -90.5v-100q0 -68 -41 -109t-109 -41q-23 0 -46 1.5t-42 3.5q-22 2 -42 5v125h70
q15 0 25 10t10 25v90q0 40 -40 40h-90z" />
    <glyph glyph-name="agrave" unicode="&#xe0;" horiz-adv-x="595" 
d="M25 0zM260 130q19 0 40 3t39 7q21 4 41 10v60h-145q-15 0 -25 -10t-10 -25v-10q0 -15 10 -25t25 -10h25zM175 -10q-68 0 -109 41t-41 109v45q0 68 41 109t109 41h205v40q0 15 -10 25t-25 10q-40 0 -86.5 -2.5t-87.5 -5.5q-48 -4 -96 -7v125q55 6 112 10q49 4 107 7t111 3
q68 0 109 -41t41 -109v-390h-155l-10 50q-26 -17 -56 -30q-26 -11 -58 -20.5t-66 -9.5h-35zM262 570l-110 170h170l60 -170h-120z" />
    <glyph glyph-name="aacute" unicode="&#xe1;" horiz-adv-x="595" 
d="M25 0zM260 130q19 0 40 3t39 7q21 4 41 10v60h-145q-15 0 -25 -10t-10 -25v-10q0 -15 10 -25t25 -10h25zM175 -10q-68 0 -109 41t-41 109v45q0 68 41 109t109 41h205v40q0 15 -10 25t-25 10q-40 0 -86.5 -2.5t-87.5 -5.5q-48 -4 -96 -7v125q55 6 112 10q49 4 107 7t111 3
q68 0 109 -41t41 -109v-390h-155l-10 50q-26 -17 -56 -30q-26 -11 -58 -20.5t-66 -9.5h-35zM219 571l60 170h180l-110 -170h-130z" />
    <glyph glyph-name="acircumflex" unicode="&#xe2;" horiz-adv-x="595" 
d="M25 0zM260 130q19 0 40 3t39 7q21 4 41 10v60h-145q-15 0 -25 -10t-10 -25v-10q0 -15 10 -25t25 -10h25zM175 -10q-68 0 -109 41t-41 109v45q0 68 41 109t109 41h205v40q0 15 -10 25t-25 10q-40 0 -86.5 -2.5t-87.5 -5.5q-48 -4 -96 -7v125q55 6 112 10q49 4 107 7t111 3
q68 0 109 -41t41 -109v-390h-155l-10 50q-26 -17 -56 -30q-26 -11 -58 -20.5t-66 -9.5h-35zM130 571l120 170h140l120 -170h-125l-65 80l-65 -80h-125z" />
    <glyph glyph-name="atilde" unicode="&#xe3;" horiz-adv-x="595" 
d="M25 0zM260 130q19 0 40 3t39 7q21 4 41 10v60h-145q-15 0 -25 -10t-10 -25v-10q0 -15 10 -25t25 -10h25zM175 -10q-68 0 -109 41t-41 109v45q0 68 41 109t109 41h205v40q0 15 -10 25t-25 10q-40 0 -86.5 -2.5t-87.5 -5.5q-48 -4 -96 -7v125q55 6 112 10q49 4 107 7t111 3
q68 0 109 -41t41 -109v-390h-155l-10 50q-26 -17 -56 -30q-26 -11 -58 -20.5t-66 -9.5h-35zM492 686q-9 -32 -24 -58q-14 -22 -35.5 -39.5t-55.5 -17.5q-21 0 -36.5 8t-29 17t-26.5 17t-28 8q-14 0 -23 -6t-15 -14q-7 -9 -12 -20l-65 40q8 31 24 57q13 22 35 40t56 18
q21 0 36.5 -8t29 -17t26.5 -17t28 -8q13 0 22.5 6t15.5 14q7 9 12 20z" />
    <glyph glyph-name="adieresis" unicode="&#xe4;" horiz-adv-x="595" 
d="M25 0zM260 130q19 0 40 3t39 7q21 4 41 10v60h-145q-15 0 -25 -10t-10 -25v-10q0 -15 10 -25t25 -10h25zM175 -10q-68 0 -109 41t-41 109v45q0 68 41 109t109 41h205v40q0 15 -10 25t-25 10q-40 0 -86.5 -2.5t-87.5 -5.5q-48 -4 -96 -7v125q55 6 112 10q49 4 107 7t111 3
q68 0 109 -41t41 -109v-390h-155l-10 50q-26 -17 -56 -30q-26 -11 -58 -20.5t-66 -9.5h-35zM350 731h170v-140h-170v140zM120 731h170v-140h-170v140z" />
    <glyph glyph-name="aring" unicode="&#xe5;" horiz-adv-x="595" 
d="M25 0zM260 130q19 0 40 3t39 7q21 4 41 10v60h-145q-15 0 -25 -10t-10 -25v-10q0 -15 10 -25t25 -10h25zM175 -10q-68 0 -109 41t-41 109v45q0 68 41 109t109 41h205v40q0 15 -10 25t-25 10q-40 0 -86.5 -2.5t-87.5 -5.5q-48 -4 -96 -7v125q55 6 112 10q49 4 107 7t111 3
q68 0 109 -41t41 -109v-390h-155l-10 50q-26 -17 -56 -30q-26 -11 -58 -20.5t-66 -9.5h-35zM337 765q49 0 74.5 -24t25.5 -66v-15q0 -42 -25.5 -66t-74.5 -24h-60q-49 0 -74.5 24t-25.5 66v15q0 42 25.5 66t74.5 24h60zM352 670q0 30 -30 30h-30q-30 0 -30 -30v-5
q0 -30 30 -30h30q30 0 30 30v5z" />
    <glyph glyph-name="ae" unicode="&#xe6;" horiz-adv-x="920" 
d="M360 540q26 0 45.5 -5.5t33.5 -12.5q15 -8 26 -17q10 9 26 17q13 7 33 12.5t46 5.5h150q75 0 117.5 -42.5t42.5 -117.5v-175h-335v-55q0 -11 10 -20.5t25 -9.5q43 0 92 2t91 5q49 4 97 8v-125q-56 -6 -114 -10q-50 -4 -109.5 -7t-116.5 -3q-42 0 -67 10t-39 22
q-17 14 -24 33q-27 -19 -58 -33q-26 -12 -60 -22t-72 -10h-25q-68 0 -109 41t-41 109v45q0 68 41 109t109 41h195v44q-2 14 -11.5 22.5t-23.5 8.5q-40 0 -85 -2.5t-84 -5.5l-91 -7v125q46 6 94 10q42 4 92 7t99 3zM585 415q-40 0 -40 -40v-45h160v45q0 40 -40 40h-80z
M250 130q19 0 40 3t39 7q21 4 41 10v60h-135q-15 0 -25 -10t-10 -25v-10q0 -15 10 -25t25 -10h15z" />
    <glyph glyph-name="ccedilla" unicode="&#xe7;" horiz-adv-x="550" 
d="M40 0zM40 370q0 75 42.5 117.5t117.5 42.5h320v-135h-265q-40 0 -40 -40v-195q0 -15 10 -25t25 -10q39 0 86 2t88 5l96 8v-130q-56 -6 -113 -10q-49 -4 -106.5 -7t-110.5 -3q-68 0 -109 41t-41 109v230zM315 20v-40h10q49 0 74.5 -24t25.5 -66t-25.5 -66t-74.5 -24h-120
v65h100q35 0 35 25t-35 25h-75v105h85z" />
    <glyph glyph-name="egrave" unicode="&#xe8;" horiz-adv-x="600" 
d="M40 0zM255 415q-40 0 -40 -40v-55h170v55q0 40 -40 40h-90zM40 380q0 75 42.5 117.5t117.5 42.5h200q75 0 117.5 -42.5t42.5 -117.5v-185h-345v-40q0 -15 10 -25t25 -10q43 0 93.5 2t94.5 5l102 8v-125q-58 -6 -119 -10q-52 -4 -113 -7t-118 -3q-68 0 -109 41t-41 109
v240zM255 570l-110 170h170l60 -170h-120z" />
    <glyph glyph-name="eacute" unicode="&#xe9;" horiz-adv-x="600" 
d="M40 0zM255 415q-40 0 -40 -40v-55h170v55q0 40 -40 40h-90zM40 380q0 75 42.5 117.5t117.5 42.5h200q75 0 117.5 -42.5t42.5 -117.5v-185h-345v-40q0 -15 10 -25t25 -10q43 0 93.5 2t94.5 5l102 8v-125q-58 -6 -119 -10q-52 -4 -113 -7t-118 -3q-68 0 -109 41t-41 109
v240zM220 571l60 170h180l-110 -170h-130z" />
    <glyph glyph-name="ecircumflex" unicode="&#xea;" horiz-adv-x="600" 
d="M40 0zM255 415q-40 0 -40 -40v-55h170v55q0 40 -40 40h-90zM40 380q0 75 42.5 117.5t117.5 42.5h200q75 0 117.5 -42.5t42.5 -117.5v-185h-345v-40q0 -15 10 -25t25 -10q43 0 93.5 2t94.5 5l102 8v-125q-58 -6 -119 -10q-52 -4 -113 -7t-118 -3q-68 0 -109 41t-41 109
v240zM110 571l120 170h140l120 -170h-125l-65 80l-65 -80h-125z" />
    <glyph glyph-name="edieresis" unicode="&#xeb;" horiz-adv-x="600" 
d="M40 0zM255 415q-40 0 -40 -40v-55h170v55q0 40 -40 40h-90zM40 380q0 75 42.5 117.5t117.5 42.5h200q75 0 117.5 -42.5t42.5 -117.5v-185h-345v-40q0 -15 10 -25t25 -10q43 0 93.5 2t94.5 5l102 8v-125q-58 -6 -119 -10q-52 -4 -113 -7t-118 -3q-68 0 -109 41t-41 109
v240zM330 710h170v-140h-170v140zM100 710h170v-140h-170v140z" />
    <glyph glyph-name="igrave" unicode="&#xec;" horiz-adv-x="320" 
d="M270 530v-530h-175v395h-75v135h250zM134 570l-110 170h170l60 -170h-120z" />
    <glyph glyph-name="iacute" unicode="&#xed;" horiz-adv-x="320" 
d="M270 530v-530h-175v395h-75v135h250zM100 571l60 170h180l-110 -170h-130z" />
    <glyph glyph-name="icircumflex" unicode="&#xee;" horiz-adv-x="320" 
d="M270 530v-530h-175v395h-75v135h250zM-25 569l120 170h140l120 -170h-125l-65 80l-65 -80h-125z" />
    <glyph glyph-name="idieresis" unicode="&#xef;" horiz-adv-x="320" 
d="M270 530v-530h-175v395h-75v135h250zM190 710h170v-140h-170v140zM-40 710h170v-140h-170v140z" />
    <glyph glyph-name="eth" unicode="&#xf0;" horiz-adv-x="610" 
d="M314 692l66 -7q45 -5 82 -22t63 -43.5t40.5 -61t14.5 -73.5v-335q0 -75 -42.5 -117.5t-117.5 -42.5h-220q-75 0 -117.5 42.5t-42.5 117.5v140q0 68 41 109t109 41h45q26 0 55.5 -3t55.5 -7q30 -4 59 -10v65q0 26 -17.5 42t-47.5 19l-40 4l-5 -55l-115 10l5 57l-80 8
l15 140l79 -7l6 62l115 -10zM365 125q40 0 40 40v130q-19 2 -39 5q-17 2 -39 3.5t-42 1.5h-35q-15 0 -25 -10t-10 -25v-105q0 -40 40 -40h110z" />
    <glyph glyph-name="ntilde" unicode="&#xf1;" 
d="M50 0zM205 530l10 -50q26 17 56 30q26 11 58 20.5t66 9.5h45q68 0 109 -41t41 -109v-390h-175v360q0 15 -10 25t-25 10h-35q-19 0 -40 -3t-39 -7q-21 -4 -41 -10v-375h-175v530h155zM490 696q-9 -32 -24 -58q-14 -22 -35.5 -39.5t-55.5 -17.5q-21 0 -36.5 8t-29 17
t-26.5 17t-28 8q-14 0 -23 -6t-15 -14q-7 -9 -12 -20l-65 40q8 31 24 57q13 22 35 40t56 18q21 0 36.5 -8t29 -17t26.5 -17t28 -8q13 0 22.5 6t15.5 14q7 9 12 20z" />
    <glyph glyph-name="ograve" unicode="&#xf2;" 
d="M40 0zM590 150q0 -75 -42.5 -117.5t-117.5 -42.5h-230q-75 0 -117.5 42.5t-42.5 117.5v230q0 75 42.5 117.5t117.5 42.5h230q75 0 117.5 -42.5t42.5 -117.5v-230zM415 365q0 40 -40 40h-120q-40 0 -40 -40v-200q0 -40 40 -40h120q40 0 40 40v200zM260 570l-110 170h170
l60 -170h-120z" />
    <glyph glyph-name="oacute" unicode="&#xf3;" 
d="M40 0zM590 150q0 -75 -42.5 -117.5t-117.5 -42.5h-230q-75 0 -117.5 42.5t-42.5 117.5v230q0 75 42.5 117.5t117.5 42.5h230q75 0 117.5 -42.5t42.5 -117.5v-230zM415 365q0 40 -40 40h-120q-40 0 -40 -40v-200q0 -40 40 -40h120q40 0 40 40v200zM245 570l60 170h180
l-110 -170h-130z" />
    <glyph glyph-name="ocircumflex" unicode="&#xf4;" 
d="M40 0zM590 150q0 -75 -42.5 -117.5t-117.5 -42.5h-230q-75 0 -117.5 42.5t-42.5 117.5v230q0 75 42.5 117.5t117.5 42.5h230q75 0 117.5 -42.5t42.5 -117.5v-230zM415 365q0 40 -40 40h-120q-40 0 -40 -40v-200q0 -40 40 -40h120q40 0 40 40v200zM125 571l120 170h140
l120 -170h-125l-65 80l-65 -80h-125z" />
    <glyph glyph-name="otilde" unicode="&#xf5;" 
d="M40 0zM590 150q0 -75 -42.5 -117.5t-117.5 -42.5h-230q-75 0 -117.5 42.5t-42.5 117.5v230q0 75 42.5 117.5t117.5 42.5h230q75 0 117.5 -42.5t42.5 -117.5v-230zM415 365q0 40 -40 40h-120q-40 0 -40 -40v-200q0 -40 40 -40h120q40 0 40 40v200zM490 686q-9 -32 -24 -58
q-14 -22 -35.5 -39.5t-55.5 -17.5q-21 0 -36.5 8t-29 17t-26.5 17t-28 8q-14 0 -23 -6t-15 -14q-7 -9 -12 -20l-65 40q8 31 24 57q13 22 35 40t56 18q21 0 36.5 -8t29 -17t26.5 -17t28 -8q13 0 22.5 6t15.5 14q7 9 12 20z" />
    <glyph glyph-name="odieresis" unicode="&#xf6;" 
d="M40 0zM590 150q0 -75 -42.5 -117.5t-117.5 -42.5h-230q-75 0 -117.5 42.5t-42.5 117.5v230q0 75 42.5 117.5t117.5 42.5h230q75 0 117.5 -42.5t42.5 -117.5v-230zM415 365q0 40 -40 40h-120q-40 0 -40 -40v-200q0 -40 40 -40h120q40 0 40 40v200zM345 730h170v-140h-170
v140zM115 730h170v-140h-170v140z" />
    <glyph glyph-name="divide" unicode="&#xf7;" horiz-adv-x="540" 
d="M510 420v-140h-480v140h480zM190 230h160v-140h-160v140zM190 610h160v-140h-160v140z" />
    <glyph glyph-name="oslash" unicode="&#xf8;" 
d="M15 55l35 31q-10 27 -10 64v230q0 75 42.5 117.5t117.5 42.5h230q55 0 93 -24l32 29l60 -70l-35 -32q5 -14 7.5 -30t2.5 -33v-230q0 -75 -42.5 -117.5t-117.5 -42.5h-230q-56 0 -94 23l-31 -28zM415 293l-180 -163q10 -5 20 -5h120q40 0 40 40v128zM215 236l180 164
q-10 5 -20 5h-120q-40 0 -40 -40v-129z" />
    <glyph glyph-name="ugrave" unicode="&#xf9;" horiz-adv-x="640" 
d="M50 0zM435 0l-10 50q-26 -17 -56 -30q-26 -11 -58 -20.5t-66 -9.5h-45q-68 0 -109 41t-41 109v390h175v-360q0 -15 10 -25t25 -10h35q19 0 40 3t39 7q21 4 41 10v375h175v-530h-155zM275 560l-110 170h170l60 -170h-120z" />
    <glyph glyph-name="uacute" unicode="&#xfa;" horiz-adv-x="640" 
d="M50 0zM435 0l-10 50q-26 -17 -56 -30q-26 -11 -58 -20.5t-66 -9.5h-45q-68 0 -109 41t-41 109v390h175v-360q0 -15 10 -25t25 -10h35q19 0 40 3t39 7q21 4 41 10v375h175v-530h-155zM240 560l60 170h180l-110 -170h-130z" />
    <glyph glyph-name="ucircumflex" unicode="&#xfb;" horiz-adv-x="640" 
d="M50 0zM435 0l-10 50q-26 -17 -56 -30q-26 -11 -58 -20.5t-66 -9.5h-45q-68 0 -109 41t-41 109v390h175v-360q0 -15 10 -25t25 -10h35q19 0 40 3t39 7q21 4 41 10v375h175v-530h-155zM130 570l120 170h140l120 -170h-125l-65 80l-65 -80h-125z" />
    <glyph glyph-name="udieresis" unicode="&#xfc;" horiz-adv-x="640" 
d="M50 0zM435 0l-10 50q-26 -17 -56 -30q-26 -11 -58 -20.5t-66 -9.5h-45q-68 0 -109 41t-41 109v390h175v-360q0 -15 10 -25t25 -10h35q19 0 40 3t39 7q21 4 41 10v375h175v-530h-155zM350 710h170v-140h-170v140zM120 710h170v-140h-170v140z" />
    <glyph glyph-name="yacute" unicode="&#xfd;" horiz-adv-x="570" 
d="M0 0zM405 530h185l-200 -550q-29 -79 -75 -119.5t-125 -40.5q-19 0 -41.5 1.5t-42.5 3.5q-23 2 -46 5v130h90q38 0 49.5 21t-4.5 59l-205 490h185l125 -340zM215 560l60 170h180l-110 -170h-130z" />
    <glyph glyph-name="thorn" unicode="&#xfe;" 
d="M430 530q75 0 117.5 -42.5t42.5 -117.5v-210q0 -75 -42.5 -117.5t-117.5 -42.5h-205v-170h-175v870h175v-170h205zM415 355q0 40 -40 40h-150v-260h150q40 0 40 40v180z" />
    <glyph glyph-name="ydieresis" unicode="&#xff;" horiz-adv-x="570" 
d="M0 0zM405 530h185l-200 -550q-29 -79 -75 -119.5t-125 -40.5q-19 0 -41.5 1.5t-42.5 3.5q-23 2 -46 5v130h90q38 0 49.5 21t-4.5 59l-205 490h185l125 -340zM315 730h170v-140h-170v140zM85 730h170v-140h-170v140z" />
    <glyph glyph-name="Amacron" unicode="&#x100;" horiz-adv-x="710" 
d="M0 0zM185 0h-195l265 700h200l265 -700h-195l-45 125h-250zM275 255h160l-80 235zM205 881h300v-120h-300v120z" />
    <glyph glyph-name="amacron" unicode="&#x101;" horiz-adv-x="595" 
d="M25 0zM260 130q19 0 40 3t39 7q21 4 41 10v60h-145q-15 0 -25 -10t-10 -25v-10q0 -15 10 -25t25 -10h25zM175 -10q-68 0 -109 41t-41 109v45q0 68 41 109t109 41h205v40q0 15 -10 25t-25 10q-40 0 -86.5 -2.5t-87.5 -5.5q-48 -4 -96 -7v125q55 6 112 10q49 4 107 7t111 3
q68 0 109 -41t41 -109v-390h-155l-10 50q-26 -17 -56 -30q-26 -11 -58 -20.5t-66 -9.5h-35zM167 711h300v-120h-300v120z" />
    <glyph glyph-name="Abreve" unicode="&#x102;" horiz-adv-x="710" 
d="M0 0zM185 0h-195l265 700h200l265 -700h-195l-45 125h-250zM275 255h160l-80 235zM305 751q-130 0 -130 130v30h130v-25q0 -15 10 -25t25 -10h30q15 0 25 10t10 25v25h130v-30q0 -130 -130 -130h-100z" />
    <glyph glyph-name="abreve" unicode="&#x103;" horiz-adv-x="595" 
d="M260 580q-130 0 -130 130v30h130v-25q0 -15 10 -25t25 -10h30q15 0 25 10t10 25v25h130v-30q0 -130 -130 -130h-100zM260 130q19 0 40 3t39 7q21 4 41 10v60h-145q-15 0 -25 -10t-10 -25v-10q0 -15 10 -25t25 -10h25zM175 -10q-68 0 -109 41t-41 109v45q0 68 41 109
t109 41h205v40q0 15 -10 25t-25 10q-40 0 -86.5 -2.5t-87.5 -5.5q-48 -4 -96 -7v125q55 6 112 10q49 4 107 7t111 3q68 0 109 -41t41 -109v-390h-155l-10 50q-26 -17 -56 -30q-26 -11 -58 -20.5t-66 -9.5h-35z" />
    <glyph glyph-name="Aogonek" unicode="&#x104;" horiz-adv-x="710" 
d="M0 0zM185 0h-195l265 700h200l265 -700h-195l-45 125h-250zM275 255h160l-80 235zM720 0q-34 -13 -60 -28q-23 -14 -41.5 -31.5t-18.5 -40.5q0 -25 30 -25q13 0 27 1.5t26 3.5q14 2 27 5v-75q-14 -3 -31 -5q-14 -2 -32 -3.5t-37 -1.5q-53 0 -79 23.5t-26 61.5
q0 32 17.5 53.5t39.5 35.5q26 16 58 26h100z" />
    <glyph glyph-name="aogonek" unicode="&#x105;" horiz-adv-x="595" 
d="M25 0zM260 130q19 0 40 3t39 7q21 4 41 10v60h-145q-15 0 -25 -10t-10 -25v-10q0 -15 10 -25t25 -10h25zM175 -10q-68 0 -109 41t-41 109v45q0 68 41 109t109 41h205v40q0 15 -10 25t-25 10q-40 0 -86.5 -2.5t-87.5 -5.5q-48 -4 -96 -7v125q55 6 112 10q49 4 107 7t111 3
q68 0 109 -41t41 -109v-390h-155l-10 50q-26 -17 -56 -30q-26 -11 -58 -20.5t-66 -9.5h-35zM555 0q-34 -13 -60 -28q-23 -14 -41.5 -31.5t-18.5 -40.5q0 -25 30 -25q13 0 27 1.5t26 3.5q14 2 27 5v-75q-14 -3 -31 -5q-14 -2 -32 -3.5t-37 -1.5q-53 0 -79 23.5t-26 61.5
q0 32 17.5 53.5t39.5 35.5q26 16 58 26h100z" />
    <glyph glyph-name="Cacute" unicode="&#x106;" horiz-adv-x="620" 
d="M40 0zM230 -10q-98 0 -144 46t-46 144v320q0 105 47.5 152.5t152.5 47.5h360v-140h-320q-60 0 -60 -60v-320q0 -23 13.5 -36.5t36.5 -13.5q19 0 44 0.5t52 1.5t54.5 2t53.5 3q61 4 126 8v-135q-67 -6 -133 -10q-57 -4 -120.5 -7t-116.5 -3zM250 731l60 170h180l-110 -170
h-130z" />
    <glyph glyph-name="cacute" unicode="&#x107;" horiz-adv-x="550" 
d="M40 0zM40 370q0 75 42.5 117.5t117.5 42.5h320v-135h-265q-40 0 -40 -40v-195q0 -15 10 -25t25 -10q39 0 86 2t88 5l96 8v-130q-56 -6 -113 -10q-49 -4 -106.5 -7t-110.5 -3q-68 0 -109 41t-41 109v230zM215 570l60 170h180l-110 -170h-130z" />
    <glyph glyph-name="Ccaron" unicode="&#x10c;" horiz-adv-x="620" 
d="M40 0zM230 -10q-98 0 -144 46t-46 144v320q0 105 47.5 152.5t152.5 47.5h360v-140h-320q-60 0 -60 -60v-320q0 -23 13.5 -36.5t36.5 -13.5q19 0 44 0.5t52 1.5t54.5 2t53.5 3q61 4 126 8v-135q-67 -6 -133 -10q-57 -4 -120.5 -7t-116.5 -3zM275 901l65 -80l65 80h125
l-120 -170h-140l-120 170h125z" />
    <glyph glyph-name="ccaron" unicode="&#x10d;" horiz-adv-x="550" 
d="M40 0zM40 370q0 75 42.5 117.5t117.5 42.5h320v-135h-265q-40 0 -40 -40v-195q0 -15 10 -25t25 -10q39 0 86 2t88 5l96 8v-130q-56 -6 -113 -10q-49 -4 -106.5 -7t-110.5 -3q-68 0 -109 41t-41 109v230zM230 740l65 -80l65 80h125l-120 -170h-140l-120 170h125z" />
    <glyph glyph-name="Dcaron" unicode="&#x10e;" horiz-adv-x="720" 
d="M60 0zM450 700q113 0 171.5 -58.5t58.5 -171.5v-240q0 -113 -58.5 -171.5t-171.5 -58.5h-390v700h390zM500 470q0 90 -90 90h-170v-420h170q90 0 90 90v240zM275 901l65 -80l65 80h125l-120 -170h-140l-120 170h125z" />
    <glyph glyph-name="dcaron" unicode="&#x10f;" horiz-adv-x="820" 
d="M630 700h170v-130l-70 -110h-80l40 100h-60v140zM425 0l-10 50q-26 -17 -56 -30q-26 -11 -58 -20.5t-66 -9.5h-45q-68 0 -109 41t-41 109v230q0 75 42.5 117.5t117.5 42.5h205v170h175v-700h-155zM405 395h-150q-40 0 -40 -40v-185q0 -15 10 -25t25 -10h35q19 0 40 3
t39 7q21 4 41 10v240z" />
    <glyph glyph-name="Dcroat" unicode="&#x110;" horiz-adv-x="740" 
d="M80 420v280h390q113 0 171.5 -58.5t58.5 -171.5v-240q0 -113 -58.5 -171.5t-171.5 -58.5h-390v285h-60v135h60zM520 470q0 90 -90 90h-170v-140h120v-135h-120v-145h170q90 0 90 90v240z" />
    <glyph glyph-name="dcroat" unicode="&#x111;" horiz-adv-x="660" 
d="M425 0l-10 50q-26 -17 -56 -30q-26 -11 -58 -20.5t-66 -9.5h-45q-68 0 -109 41t-41 109v150q0 75 42.5 117.5t117.5 42.5h205v45h-125v125h125v80h155l20 -80h60v-125h-60v-495h-155zM405 315h-150q-40 0 -40 -40v-105q0 -15 10 -25t25 -10h35q19 0 40 3t39 7q21 4 41 10
v160z" />
    <glyph glyph-name="Emacron" unicode="&#x112;" horiz-adv-x="635" 
d="M60 0zM615 0h-555v700h555v-140h-375v-135h295v-140h-295v-145h375v-140zM167 881h300v-120h-300v120z" />
    <glyph glyph-name="emacron" unicode="&#x113;" horiz-adv-x="600" 
d="M40 0zM255 415q-40 0 -40 -40v-55h170v55q0 40 -40 40h-90zM40 380q0 75 42.5 117.5t117.5 42.5h200q75 0 117.5 -42.5t42.5 -117.5v-185h-345v-40q0 -15 10 -25t25 -10q43 0 93.5 2t94.5 5l102 8v-125q-58 -6 -119 -10q-52 -4 -113 -7t-118 -3q-68 0 -109 41t-41 109
v240zM150 711h300v-120h-300v120z" />
    <glyph glyph-name="Edotaccent" unicode="&#x116;" horiz-adv-x="635" 
d="M60 0zM615 0h-555v700h555v-140h-375v-135h295v-140h-295v-145h375v-140zM232 901h170v-140h-170v140z" />
    <glyph glyph-name="edotaccent" unicode="&#x117;" horiz-adv-x="600" 
d="M40 0zM255 415q-40 0 -40 -40v-55h170v55q0 40 -40 40h-90zM40 380q0 75 42.5 117.5t117.5 42.5h200q75 0 117.5 -42.5t42.5 -117.5v-185h-345v-40q0 -15 10 -25t25 -10q43 0 93.5 2t94.5 5l102 8v-125q-58 -6 -119 -10q-52 -4 -113 -7t-118 -3q-68 0 -109 41t-41 109
v240zM215 730h170v-140h-170v140z" />
    <glyph glyph-name="Eogonek" unicode="&#x118;" horiz-adv-x="635" 
d="M60 0zM615 0h-555v700h555v-140h-375v-135h295v-140h-295v-145h375v-140zM615 0q-34 -13 -60 -28q-23 -14 -41.5 -31.5t-18.5 -40.5q0 -25 30 -25q13 0 27 1.5t26 3.5q14 2 27 5v-75q-14 -3 -31 -5q-14 -2 -32 -3.5t-37 -1.5q-53 0 -79 23.5t-26 61.5q0 32 17.5 53.5
t39.5 35.5q26 16 58 26h100z" />
    <glyph glyph-name="eogonek" unicode="&#x119;" horiz-adv-x="600" 
d="M40 380q0 75 42.5 117.5t117.5 42.5h200q75 0 117.5 -42.5t42.5 -117.5v-185h-345v-40q0 -15 10 -25t25 -10q43 0 93.5 2t94.5 5l102 8v-125q-34 -18 -60 -36q-23 -16 -41.5 -35.5t-18.5 -38.5q0 -25 30 -25q13 0 27 1.5t26 3.5q14 2 27 5v-75q-14 -3 -31 -5
q-14 -2 -32 -3.5t-37 -1.5q-53 0 -79 23.5t-26 61.5q0 30 16 51.5t36.5 35t38.5 20.5t22 8q-3 0 -29 -1.5t-62.5 -3.5t-78.5 -3.5t-78 -1.5q-68 0 -109 41t-41 109v240zM255 415q-40 0 -40 -40v-55h170v55q0 40 -40 40h-90z" />
    <glyph glyph-name="Ecaron" unicode="&#x11a;" horiz-adv-x="635" 
d="M60 0zM615 0h-555v700h555v-140h-375v-135h295v-140h-295v-145h375v-140zM282 901l65 -80l65 80h125l-120 -170h-140l-120 170h125z" />
    <glyph glyph-name="ecaron" unicode="&#x11b;" horiz-adv-x="600" 
d="M40 0zM255 415q-40 0 -40 -40v-55h170v55q0 40 -40 40h-90zM40 380q0 75 42.5 117.5t117.5 42.5h200q75 0 117.5 -42.5t42.5 -117.5v-185h-345v-40q0 -15 10 -25t25 -10q43 0 93.5 2t94.5 5l102 8v-125q-58 -6 -119 -10q-52 -4 -113 -7t-118 -3q-68 0 -109 41t-41 109
v240zM235 740l65 -80l65 80h125l-120 -170h-140l-120 170h125z" />
    <glyph glyph-name="Gbreve" unicode="&#x11e;" horiz-adv-x="700" 
d="M40 0zM230 -10q-98 0 -144 46t-46 144v320q0 105 47.5 152.5t152.5 47.5h360v-140h-320q-60 0 -60 -60v-320q0 -23 13.5 -36.5t36.5 -13.5q30 0 66.5 0.5t68.5 1.5q37 1 75 3v145h-130v120h310v-385q-75 -8 -151 -13q-65 -5 -140 -8.5t-139 -3.5zM300 740
q-130 0 -130 130v30h130v-25q0 -15 10 -25t25 -10h30q15 0 25 10t10 25v25h130v-30q0 -130 -130 -130h-100z" />
    <glyph glyph-name="gbreve" unicode="&#x11f;" horiz-adv-x="620" 
d="M270 570q-130 0 -130 130v30h130v-25q0 -15 10 -25t25 -10h30q15 0 25 10t10 25v25h130v-30q0 -130 -130 -130h-100zM40 370q0 75 42.5 117.5t117.5 42.5h370v-560q0 -68 -41 -109t-109 -41q-57 0 -118 3t-113 7q-61 4 -119 10v130l102 -8q44 -3 94 -5t94 -2q15 0 25 10
t10 25v50q-29 -6 -59 -10q-26 -4 -55.5 -7t-55.5 -3h-35q-68 0 -109 41t-41 109v200zM215 190q0 -15 10 -25t25 -10h25q24 0 45.5 1.5t38.5 3.5q19 2 36 5v230h-140q-40 0 -40 -40v-165z" />
    <glyph glyph-name="Gcommaaccent" unicode="&#x122;" horiz-adv-x="700" 
d="M40 0zM230 -10q-98 0 -144 46t-46 144v320q0 105 47.5 152.5t152.5 47.5h360v-140h-320q-60 0 -60 -60v-320q0 -23 13.5 -36.5t36.5 -13.5q30 0 66.5 0.5t68.5 1.5q37 1 75 3v145h-130v120h310v-385q-75 -8 -151 -13q-65 -5 -140 -8.5t-139 -3.5zM265 -39h170v-130
l-70 -110h-80l40 100h-60v140z" />
    <glyph glyph-name="gcommaaccent" unicode="&#x123;" horiz-adv-x="620" 
d="M400 580h-170v130l70 110h80l-40 -100h60v-140zM40 370q0 75 42.5 117.5t117.5 42.5h370v-560q0 -68 -41 -109t-109 -41q-57 0 -118 3t-113 7q-61 4 -119 10v130l102 -8q44 -3 94 -5t94 -2q15 0 25 10t10 25v50q-29 -6 -59 -10q-26 -4 -55.5 -7t-55.5 -3h-35
q-68 0 -109 41t-41 109v200zM215 190q0 -15 10 -25t25 -10h25q24 0 45.5 1.5t38.5 3.5q19 2 36 5v230h-140q-40 0 -40 -40v-165z" />
    <glyph glyph-name="hbar" unicode="&#x127;" horiz-adv-x="660" 
d="M80 620l20 80h155v-80h125v-125h-125v-65q29 6 59 10q26 4 55.5 7t55.5 3h45q68 0 109 -41t41 -109v-300h-175v280q0 15 -10 25t-25 10h-35q-21 0 -42.5 -1.5t-38.5 -3.5q-20 -3 -39 -5v-305h-175v495h-60v125h60z" />
    <glyph glyph-name="Itilde" unicode="&#x128;" horiz-adv-x="420" 
d="M30 0zM390 0h-360v140h90v420h-90v140h360v-140h-90v-420h90v-140zM385 861q-9 -32 -24 -58q-14 -22 -35.5 -39.5t-55.5 -17.5q-21 0 -36.5 8t-29 17t-26.5 17t-28 8q-14 0 -23 -6t-15 -14q-7 -9 -12 -20l-65 40q8 31 24 57q13 22 35 40t56 18q21 0 36.5 -8t29 -17
t26.5 -17t28 -8q13 0 22.5 6t15.5 14q7 9 12 20z" />
    <glyph glyph-name="itilde" unicode="&#x129;" horiz-adv-x="320" 
d="M270 530v-530h-175v395h-75v135h250zM335 695q-9 -32 -24 -58q-14 -22 -35.5 -39.5t-55.5 -17.5q-21 0 -36.5 8t-29 17t-26.5 17t-28 8q-14 0 -23 -6t-15 -14q-7 -9 -12 -20l-65 40q8 31 24 57q13 22 35 40t56 18q21 0 36.5 -8t29 -17t26.5 -17t28 -8q13 0 22.5 6
t15.5 14q7 9 12 20z" />
    <glyph glyph-name="Imacron" unicode="&#x12a;" horiz-adv-x="420" 
d="M30 0zM390 0h-360v140h90v420h-90v140h360v-140h-90v-420h90v-140zM60 881h300v-120h-300v120z" />
    <glyph glyph-name="imacron" unicode="&#x12b;" horiz-adv-x="320" 
d="M270 510v-510h-175v375h-75v135h250zM10 700h300v-120h-300v120z" />
    <glyph glyph-name="Iogonek" unicode="&#x12e;" horiz-adv-x="420" 
d="M30 0zM390 0h-360v140h90v420h-90v140h360v-140h-90v-420h90v-140zM300 0q-34 -13 -60 -28q-23 -14 -41.5 -31.5t-18.5 -40.5q0 -25 30 -25q13 0 27 1.5t26 3.5q14 2 27 5v-75q-14 -3 -31 -5q-14 -2 -32 -3.5t-37 -1.5q-53 0 -79 23.5t-26 61.5q0 32 17.5 53.5t39.5 35.5
q26 16 58 26h100z" />
    <glyph glyph-name="iogonek" unicode="&#x12f;" horiz-adv-x="320" 
d="M20 0zM270 510v-510h-175v375h-75v135h250zM95 710h175v-140h-175v140zM267 0q-34 -13 -60 -28q-23 -14 -41.5 -31.5t-18.5 -40.5q0 -25 30 -25q13 0 27 1.5t26 3.5q14 2 27 5v-75q-14 -3 -31 -5q-14 -2 -32 -3.5t-37 -1.5q-53 0 -79 23.5t-26 61.5q0 32 17.5 53.5
t39.5 35.5q26 16 58 26h100z" />
    <glyph glyph-name="Idotaccent" unicode="&#x130;" horiz-adv-x="420" 
d="M30 0zM390 0h-360v140h90v420h-90v140h360v-140h-90v-420h90v-140zM125 900h170v-140h-170v140z" />
    <glyph glyph-name="dotlessi" unicode="&#x131;" horiz-adv-x="320" 
d="M270 530v-530h-175v395h-75v135h250z" />
    <glyph glyph-name="ij" unicode="&#x133;" horiz-adv-x="610" 
d="M550 -30q0 -68 -41 -109t-109 -41q-34 0 -68 1.5t-61 3.5q-32 2 -61 5v130h130q15 0 25 10t10 25v390h-105v-385h-175v385h-75v135h530v-550zM375 710h175v-140h-175v140zM95 710h175v-140h-175v140z" />
    <glyph glyph-name="Jcircumflex" unicode="&#x134;" horiz-adv-x="460" 
d="M10 0zM10 135q31 -2 61 -3q26 -1 53 -1.5t46 -0.5q23 0 36.5 13.5t13.5 36.5v380h-130v140h310v-520q0 -98 -46 -144t-144 -46q-34 0 -69.5 1.5t-64.5 3.5q-34 2 -66 5v135zM60 731l120 170h140l120 -170h-125l-65 80l-65 -80h-125z" />
    <glyph glyph-name="jcircumflex" unicode="&#x135;" horiz-adv-x="300" 
d="M250 -30q0 -68 -41 -109t-109 -41q-34 0 -68 1.5t-61 3.5q-32 2 -61 5v130h130q15 0 25 10t10 25v535h175v-560zM-30 570l120 170h140l120 -170h-125l-65 80l-65 -80h-125z" />
    <glyph glyph-name="Kcommaaccent" unicode="&#x136;" horiz-adv-x="676" 
d="M60 0zM240 0h-180v700h180v-275h90l156 275h190l-196 -345l195 -355h-190l-155 285h-90v-285zM253 -30h170v-130l-70 -110h-80l40 100h-60v140z" />
    <glyph glyph-name="kcommaaccent" unicode="&#x137;" horiz-adv-x="600" 
d="M50 0zM225 210v-210h-175v700h175v-355h80l110 185h185l-150 -255l150 -275h-185l-115 210h-75zM215 -30h170v-130l-70 -110h-80l40 100h-60v140z" />
    <glyph glyph-name="kgreenlandic" unicode="&#x138;" horiz-adv-x="600" 
d="M300 200h-75v-200h-175v530h175v-195h80l55 110q9 19 22.5 36t31.5 30t40.5 21t50.5 8q15 0 29.5 -1.5t25.5 -3.5l25 -5v-135h-35q-19 0 -31.5 -9.5t-18.5 -20.5l-50 -100l150 -265h-190z" />
    <glyph glyph-name="Lacute" unicode="&#x139;" horiz-adv-x="615" 
d="M60 0zM240 140h365v-140h-545v700h180v-560zM87 731l60 170h180l-110 -170h-130z" />
    <glyph glyph-name="lacute" unicode="&#x13a;" horiz-adv-x="340" 
d="M50 0zM50 700h175v-535q0 -15 10 -25t25 -10h60v-130q-20 -3 -41 -5q-18 -2 -39 -3.5t-40 -1.5q-68 0 -109 41t-41 109v560zM70 729l60 170h180l-110 -170h-130z" />
    <glyph glyph-name="Lcommaaccent" unicode="&#x13b;" horiz-adv-x="615" 
d="M60 0zM240 140h365v-140h-545v700h180v-560zM222 -30h170v-130l-70 -110h-80l40 100h-60v140z" />
    <glyph glyph-name="lcommaaccent" unicode="&#x13c;" horiz-adv-x="340" 
d="M50 0zM50 700h175v-535q0 -15 10 -25t25 -10h60v-130q-20 -3 -41 -5q-18 -2 -39 -3.5t-40 -1.5q-68 0 -109 41t-41 109v560zM85 -30h170v-130l-70 -110h-80l40 100h-60v140z" />
    <glyph glyph-name="Lcaron" unicode="&#x13d;" horiz-adv-x="615" 
d="M300 700h170v-130l-70 -110h-80l40 100h-60v140zM240 140h365v-140h-545v700h180v-560z" />
    <glyph glyph-name="lcaron" unicode="&#x13e;" horiz-adv-x="465" 
d="M275 700h170v-130l-70 -110h-80l40 100h-60v140zM50 700h175v-535q0 -15 10 -25t25 -10h60v-130q-20 -3 -41 -5q-18 -2 -39 -3.5t-40 -1.5q-68 0 -109 41t-41 109v560z" />
    <glyph glyph-name="ldot" unicode="&#x140;" horiz-adv-x="490" 
d="M50 0zM50 700h175v-535q0 -15 10 -25t25 -10h60v-130q-20 -3 -41 -5q-18 -2 -39 -3.5t-40 -1.5q-68 0 -109 41t-41 109v560zM290 425h180v-150h-180v150z" />
    <glyph glyph-name="Lslash" unicode="&#x141;" horiz-adv-x="635" 
d="M80 393v307h180v-206l90 51v-165l-90 -51v-189h365v-140h-545v228l-60 -33v165z" />
    <glyph glyph-name="lslash" unicode="&#x142;" horiz-adv-x="370" 
d="M80 228l-60 -33v165l60 33v307h175v-209l95 54v-165l-95 -54v-161q0 -15 10 -25t25 -10h60v-130q-20 -3 -41 -5q-18 -2 -39 -3.5t-40 -1.5q-68 0 -109 41t-41 109v88z" />
    <glyph glyph-name="Nacute" unicode="&#x143;" horiz-adv-x="730" 
d="M60 0zM670 0h-190l-240 420v-420h-180v700h190l240 -420v420h180v-700zM295 721l60 170h180l-110 -170h-130z" />
    <glyph glyph-name="nacute" unicode="&#x144;" 
d="M50 0zM205 530l10 -50q26 17 56 30q26 11 58 20.5t66 9.5h45q68 0 109 -41t41 -109v-390h-175v360q0 15 -10 25t-25 10h-35q-19 0 -40 -3t-39 -7q-21 -4 -41 -10v-375h-175v530h155zM255 570l60 170h180l-110 -170h-130z" />
    <glyph glyph-name="Ncommaaccent" unicode="&#x145;" horiz-adv-x="730" 
d="M60 0zM670 0h-190l-240 420v-420h-180v700h190l240 -420v420h180v-700zM280 -30h170v-130l-70 -110h-80l40 100h-60v140z" />
    <glyph glyph-name="ncommaaccent" unicode="&#x146;" 
d="M50 0zM205 530l10 -50q26 17 56 30q26 11 58 20.5t66 9.5h45q68 0 109 -41t41 -109v-390h-175v360q0 15 -10 25t-25 10h-35q-19 0 -40 -3t-39 -7q-21 -4 -41 -10v-375h-175v530h155zM230 -30h170v-130l-70 -110h-80l40 100h-60v140z" />
    <glyph glyph-name="Ncaron" unicode="&#x147;" horiz-adv-x="730" 
d="M60 0zM670 0h-190l-240 420v-420h-180v700h190l240 -420v420h180v-700zM300 891l65 -80l65 80h125l-120 -170h-140l-120 170h125z" />
    <glyph glyph-name="ncaron" unicode="&#x148;" 
d="M50 0zM205 530l10 -50q26 17 56 30q26 11 58 20.5t66 9.5h45q68 0 109 -41t41 -109v-390h-175v360q0 15 -10 25t-25 10h-35q-19 0 -40 -3t-39 -7q-21 -4 -41 -10v-375h-175v530h155zM260 742l65 -80l65 80h125l-120 -170h-140l-120 170h125z" />
    <glyph glyph-name="Omacron" unicode="&#x14c;" horiz-adv-x="730" 
d="M40 0zM510 510q0 60 -60 60h-170q-60 0 -60 -60v-320q0 -60 60 -60h170q60 0 60 60v320zM690 190q0 -105 -47.5 -152.5t-152.5 -47.5h-250q-105 0 -152.5 47.5t-47.5 152.5v320q0 105 47.5 152.5t152.5 47.5h250q105 0 152.5 -47.5t47.5 -152.5v-320zM215 881h300v-120
h-300v120z" />
    <glyph glyph-name="omacron" unicode="&#x14d;" 
d="M40 0zM590 150q0 -75 -42.5 -117.5t-117.5 -42.5h-230q-75 0 -117.5 42.5t-42.5 117.5v230q0 75 42.5 117.5t117.5 42.5h230q75 0 117.5 -42.5t42.5 -117.5v-230zM415 365q0 40 -40 40h-120q-40 0 -40 -40v-200q0 -40 40 -40h120q40 0 40 40v200zM165 710h300v-120h-300
v120z" />
    <glyph glyph-name="Ohungarumlaut" unicode="&#x150;" horiz-adv-x="730" 
d="M40 0zM510 510q0 60 -60 60h-170q-60 0 -60 -60v-320q0 -60 60 -60h170q60 0 60 60v320zM690 190q0 -105 -47.5 -152.5t-152.5 -47.5h-250q-105 0 -152.5 47.5t-47.5 152.5v320q0 105 47.5 152.5t152.5 47.5h250q105 0 152.5 -47.5t47.5 -152.5v-320zM390 741l70 170h135
l-100 -170h-105zM215 741l70 170h135l-100 -170h-105z" />
    <glyph glyph-name="ohungarumlaut" unicode="&#x151;" 
d="M40 0zM590 150q0 -75 -42.5 -117.5t-117.5 -42.5h-230q-75 0 -117.5 42.5t-42.5 117.5v230q0 75 42.5 117.5t117.5 42.5h230q75 0 117.5 -42.5t42.5 -117.5v-230zM415 365q0 40 -40 40h-120q-40 0 -40 -40v-200q0 -40 40 -40h120q40 0 40 40v200zM330 570l70 170h135
l-100 -170h-105zM155 570l70 170h135l-100 -170h-105z" />
    <glyph glyph-name="OE" unicode="&#x152;" horiz-adv-x="995" 
d="M975 0h-735q-105 0 -152.5 47.5t-47.5 152.5v300q0 105 47.5 152.5t152.5 47.5h735v-140h-335v-135h255v-140h-255v-145h335v-140zM460 140v420h-180q-60 0 -60 -60v-300q0 -60 60 -60h180z" />
    <glyph glyph-name="oe" unicode="&#x153;" horiz-adv-x="945" 
d="M590 -10q-26 0 -46 5t-33 12q-16 8 -26 18q-11 -10 -26 -18q-14 -7 -33.5 -12t-45.5 -5h-180q-75 0 -117.5 42.5t-42.5 117.5v230q0 75 42.5 117.5t117.5 42.5h180q26 0 45.5 -5.5t33.5 -12.5q15 -8 26 -17q11 9 26 17q13 7 31 12.5t43 5.5h160q75 0 117.5 -42.5
t42.5 -117.5v-185h-335v-40q0 -15 10 -25t25 -10q43 0 92 2t91 5q49 4 97 8v-125q-43 -6 -91 -10q-42 -4 -94.5 -7t-109.5 -3zM395 365q0 40 -40 40h-100q-40 0 -40 -40v-200q0 -40 40 -40h100q40 0 40 40v200zM610 415q-40 0 -40 -40v-55h160v55q0 40 -40 40h-80z" />
    <glyph glyph-name="Racute" unicode="&#x154;" horiz-adv-x="720" 
d="M60 0zM60 700h420q105 0 152.5 -47.5t47.5 -152.5v-90q0 -83 -27.5 -129t-87.5 -61l125 -220h-195l-115 210h-140v-210h-180v700zM500 500q0 60 -60 60h-200v-210h200q60 0 60 60v90zM270 731l60 170h180l-110 -170h-130z" />
    <glyph glyph-name="racute" unicode="&#x155;" horiz-adv-x="460" 
d="M50 0zM205 530l10 -65q23 20 51 37q24 14 56.5 26t72.5 12h45v-155h-85q-26 0 -49.5 -5t-41.5 -10q-21 -7 -39 -15v-355h-175v530h155zM155 571l60 170h180l-110 -170h-130z" />
    <glyph glyph-name="Rcommaaccent" unicode="&#x156;" horiz-adv-x="720" 
d="M60 0zM60 700h420q105 0 152.5 -47.5t47.5 -152.5v-90q0 -83 -27.5 -129t-87.5 -61l125 -220h-195l-115 210h-140v-210h-180v700zM500 500q0 60 -60 60h-200v-210h200q60 0 60 60v90zM275 -30h170v-130l-70 -110h-80l40 100h-60v140z" />
    <glyph glyph-name="rcommaaccent" unicode="&#x157;" horiz-adv-x="460" 
d="M50 0zM205 530l10 -65q23 20 51 37q24 14 56.5 26t72.5 12h45v-155h-85q-26 0 -49.5 -5t-41.5 -10q-21 -7 -39 -15v-355h-175v530h155zM55 -30h170v-130l-70 -110h-80l40 100h-60v140z" />
    <glyph glyph-name="Rcaron" unicode="&#x158;" horiz-adv-x="720" 
d="M60 0zM60 700h420q105 0 152.5 -47.5t47.5 -152.5v-90q0 -83 -27.5 -129t-87.5 -61l125 -220h-195l-115 210h-140v-210h-180v700zM500 500q0 60 -60 60h-200v-210h200q60 0 60 60v90zM285 901l65 -80l65 80h125l-120 -170h-140l-120 170h125z" />
    <glyph glyph-name="rcaron" unicode="&#x159;" horiz-adv-x="460" 
d="M50 0zM205 530l10 -65q23 20 51 37q24 14 56.5 26t72.5 12h45v-155h-85q-26 0 -49.5 -5t-41.5 -10q-21 -7 -39 -15v-355h-175v530h155zM175 740l65 -80l65 80h125l-120 -170h-140l-120 170h125z" />
    <glyph glyph-name="Sacute" unicode="&#x15a;" horiz-adv-x="670" 
d="M30 0zM210 480q0 -60 60 -60h180q98 0 144 -46t46 -144v-50q0 -98 -46 -144t-144 -46q-30 0 -63.5 1t-68 2.5l-69 3t-65.5 3.5q-73 4 -145 10v135q73 -4 142 -8q59 -3 122 -5t107 -2q23 0 36.5 13.5t13.5 36.5v90h-230q-105 0 -152.5 47.5t-47.5 152.5v30
q0 105 47.5 152.5t152.5 47.5h351v-140h-311q-60 0 -60 -60v-20zM255 731l60 170h180l-110 -170h-130z" />
    <glyph glyph-name="sacute" unicode="&#x15b;" horiz-adv-x="580" 
d="M20 0zM195 365q0 -15 10 -25t25 -10h180q68 0 109 -41t41 -109v-40q0 -68 -41 -109t-109 -41q-64 0 -131 3t-123 7q-65 4 -126 10v130q54 -4 109 -8q48 -3 104 -5t107 -2q15 0 25 10t10 25v35h-215q-68 0 -109 41t-41 109v35q0 68 41 109t109 41h340v-130h-280
q-15 0 -25 -10t-10 -25zM210 571l60 170h180l-110 -170h-130z" />
    <glyph glyph-name="Scedilla" unicode="&#x15e;" horiz-adv-x="670" 
d="M30 0zM210 480q0 -60 60 -60h180q98 0 144 -46t46 -144v-50q0 -98 -46 -144t-144 -46q-30 0 -63.5 1t-68 2.5l-69 3t-65.5 3.5q-73 4 -145 10v135q73 -4 142 -8q59 -3 122 -5t107 -2q23 0 36.5 13.5t13.5 36.5v90h-230q-105 0 -152.5 47.5t-47.5 152.5v30
q0 105 47.5 152.5t152.5 47.5h351v-140h-311q-60 0 -60 -60v-20zM345 11v-40h10q49 0 74.5 -24t25.5 -66t-25.5 -66t-74.5 -24h-120v65h100q35 0 35 25t-35 25h-75v105h85z" />
    <glyph glyph-name="scedilla" unicode="&#x15f;" horiz-adv-x="580" 
d="M195 365q0 -15 10 -25t25 -10h180q68 0 109 -41t41 -109v-40q0 -68 -41 -109t-109 -41q-25 0 -50 0.5t-50 1.5v-22h10q49 0 74.5 -24t25.5 -66t-25.5 -66t-74.5 -24h-120v65h100q35 0 35 25t-35 25h-75v91q-41 2 -76.5 4.5t-61.5 4.5q-31 3 -57 5v130q54 -4 109 -8
q48 -3 104 -5t107 -2q15 0 25 10t10 25v35h-215q-68 0 -109 41t-41 109v35q0 68 41 109t109 41h340v-130h-280q-15 0 -25 -10t-10 -25z" />
    <glyph glyph-name="Scaron" unicode="&#x160;" horiz-adv-x="670" 
d="M30 0zM210 480q0 -60 60 -60h180q98 0 144 -46t46 -144v-50q0 -98 -46 -144t-144 -46q-30 0 -63.5 1t-68 2.5l-69 3t-65.5 3.5q-73 4 -145 10v135q73 -4 142 -8q59 -3 122 -5t107 -2q23 0 36.5 13.5t13.5 36.5v90h-230q-105 0 -152.5 47.5t-47.5 152.5v30
q0 105 47.5 152.5t152.5 47.5h351v-140h-311q-60 0 -60 -60v-20zM270 901l65 -80l65 80h125l-120 -170h-140l-120 170h125z" />
    <glyph glyph-name="scaron" unicode="&#x161;" horiz-adv-x="580" 
d="M20 0zM195 365q0 -15 10 -25t25 -10h180q68 0 109 -41t41 -109v-40q0 -68 -41 -109t-109 -41q-64 0 -131 3t-123 7q-65 4 -126 10v130q54 -4 109 -8q48 -3 104 -5t107 -2q15 0 25 10t10 25v35h-215q-68 0 -109 41t-41 109v35q0 68 41 109t109 41h340v-130h-280
q-15 0 -25 -10t-10 -25zM220 741l65 -80l65 80h125l-120 -170h-140l-120 170h125z" />
    <glyph glyph-name="Tcommaaccent" unicode="&#x162;" horiz-adv-x="620" 
d="M10 0zM400 0h-180v560h-210v140h600v-140h-210v-560zM225 -30h170v-130l-70 -110h-80l40 100h-60v140z" />
    <glyph glyph-name="tcommaaccent" unicode="&#x163;" horiz-adv-x="440" 
d="M20 0zM255 530h125v-135h-125v-230q0 -15 10 -25t25 -10h130v-130q-29 -3 -61 -5q-27 -2 -61 -3.5t-68 -1.5q-68 0 -109 41t-41 109v255h-60v135h60l20 120h155v-120zM165 -39h170v-130l-70 -110h-80l40 100h-60v140z" />
    <glyph glyph-name="Tcaron" unicode="&#x164;" horiz-adv-x="620" 
d="M10 0zM400 0h-180v560h-210v140h600v-140h-210v-560zM245 901l65 -80l65 80h125l-120 -170h-140l-120 170h125z" />
    <glyph glyph-name="tcaron" unicode="&#x165;" horiz-adv-x="600" 
d="M410 700h170v-130l-70 -110h-80l40 100h-60v140zM255 530h125v-135h-125v-230q0 -15 10 -25t25 -10h130v-130q-29 -3 -61 -5q-27 -2 -61 -3.5t-68 -1.5q-68 0 -109 41t-41 109v255h-60v135h60l20 120h155v-120z" />
    <glyph glyph-name="Umacron" unicode="&#x16a;" horiz-adv-x="750" 
d="M60 0zM510 700h180v-510q0 -105 -47.5 -152.5t-152.5 -47.5h-230q-105 0 -152.5 47.5t-47.5 152.5v510h180v-510q0 -60 60 -60h150q60 0 60 60v510zM225 871h300v-120h-300v120z" />
    <glyph glyph-name="umacron" unicode="&#x16b;" horiz-adv-x="640" 
d="M50 0zM435 0l-10 50q-26 -17 -56 -30q-26 -11 -58 -20.5t-66 -9.5h-45q-68 0 -109 41t-41 109v390h175v-360q0 -15 10 -25t25 -10h35q19 0 40 3t39 7q21 4 41 10v375h175v-530h-155zM170 710h300v-120h-300v120z" />
    <glyph glyph-name="Uring" unicode="&#x16e;" horiz-adv-x="750" 
d="M60 0zM510 700h180v-510q0 -105 -47.5 -152.5t-152.5 -47.5h-230q-105 0 -152.5 47.5t-47.5 152.5v510h180v-510q0 -60 60 -60h150q60 0 60 60v510zM405 916q49 0 74.5 -24t25.5 -66v-15q0 -42 -25.5 -66t-74.5 -24h-60q-49 0 -74.5 24t-25.5 66v15q0 42 25.5 66t74.5 24
h60zM420 821q0 30 -30 30h-30q-30 0 -30 -30v-5q0 -30 30 -30h30q30 0 30 30v5z" />
    <glyph glyph-name="uring" unicode="&#x16f;" horiz-adv-x="640" 
d="M50 0zM435 0l-10 50q-26 -17 -56 -30q-26 -11 -58 -20.5t-66 -9.5h-45q-68 0 -109 41t-41 109v390h175v-360q0 -15 10 -25t25 -10h35q19 0 40 3t39 7q21 4 41 10v375h175v-530h-155zM350 755q49 0 74.5 -24t25.5 -66v-15q0 -42 -25.5 -66t-74.5 -24h-60q-49 0 -74.5 24
t-25.5 66v15q0 42 25.5 66t74.5 24h60zM365 660q0 30 -30 30h-30q-30 0 -30 -30v-5q0 -30 30 -30h30q30 0 30 30v5z" />
    <glyph glyph-name="Uhungarumlaut" unicode="&#x170;" horiz-adv-x="750" 
d="M60 0zM510 700h180v-510q0 -105 -47.5 -152.5t-152.5 -47.5h-230q-105 0 -152.5 47.5t-47.5 152.5v510h180v-510q0 -60 60 -60h150q60 0 60 60v510zM400 721l70 170h135l-100 -170h-105zM225 721l70 170h135l-100 -170h-105z" />
    <glyph glyph-name="uhungarumlaut" unicode="&#x171;" horiz-adv-x="640" 
d="M50 0zM435 0l-10 50q-26 -17 -56 -30q-26 -11 -58 -20.5t-66 -9.5h-45q-68 0 -109 41t-41 109v390h175v-360q0 -15 10 -25t25 -10h35q19 0 40 3t39 7q21 4 41 10v375h175v-530h-155zM345 570l70 170h135l-100 -170h-105zM170 570l70 170h135l-100 -170h-105z" />
    <glyph glyph-name="Uogonek" unicode="&#x172;" horiz-adv-x="750" 
d="M60 0zM510 700h180v-510q0 -105 -47.5 -152.5t-152.5 -47.5h-230q-105 0 -152.5 47.5t-47.5 152.5v510h180v-510q0 -60 60 -60h150q60 0 60 60v510zM490 0q-34 -13 -60 -28q-23 -14 -41.5 -31.5t-18.5 -40.5q0 -25 30 -25q13 0 27 1.5t26 3.5q14 2 27 5v-75
q-14 -3 -31 -5q-14 -2 -32 -3.5t-37 -1.5q-53 0 -79 23.5t-26 61.5q0 32 17.5 53.5t39.5 35.5q26 16 58 26h100z" />
    <glyph glyph-name="uogonek" unicode="&#x173;" horiz-adv-x="640" 
d="M50 0zM435 0l-10 50q-26 -17 -56 -30q-26 -11 -58 -20.5t-66 -9.5h-45q-68 0 -109 41t-41 109v390h175v-360q0 -15 10 -25t25 -10h35q19 0 40 3t39 7q21 4 41 10v375h175v-530h-155zM590 0q-34 -13 -60 -28q-23 -14 -41.5 -31.5t-18.5 -40.5q0 -25 30 -25q13 0 27 1.5
t26 3.5q14 2 27 5v-75q-14 -3 -31 -5q-14 -2 -32 -3.5t-37 -1.5q-53 0 -79 23.5t-26 61.5q0 32 17.5 53.5t39.5 35.5q26 16 58 26h100z" />
    <glyph glyph-name="Ydieresis" unicode="&#x178;" horiz-adv-x="670" 
d="M0 0zM-20 700h190l165 -340l165 340h190l-265 -515v-185h-180v185zM365 871h170v-140h-170v140zM135 871h170v-140h-170v140z" />
    <glyph glyph-name="Zacute" unicode="&#x179;" horiz-adv-x="610" 
d="M20 0zM590 560l-350 -420h350v-140h-570v140l350 420h-350v140h570v-140zM225 731l60 170h180l-110 -170h-130z" />
    <glyph glyph-name="zacute" unicode="&#x17a;" horiz-adv-x="535" 
d="M20 0zM515 395l-275 -260h275v-135h-495v135l275 260h-275v135h495v-135zM180 571l60 170h180l-110 -170h-130z" />
    <glyph glyph-name="Zdotaccent" unicode="&#x17b;" horiz-adv-x="610" 
d="M20 0zM590 560l-350 -420h350v-140h-570v140l350 420h-350v140h570v-140zM220 901h170v-140h-170v140z" />
    <glyph glyph-name="zdotaccent" unicode="&#x17c;" horiz-adv-x="535" 
d="M20 0zM515 395l-275 -260h275v-135h-495v135l275 260h-275v135h495v-135zM192 730h170v-140h-170v140z" />
    <glyph glyph-name="Zcaron" unicode="&#x17d;" horiz-adv-x="610" 
d="M20 0zM590 560l-350 -420h350v-140h-570v140l350 420h-350v140h570v-140zM240 901l65 -80l65 80h125l-120 -170h-140l-120 170h125z" />
    <glyph glyph-name="zcaron" unicode="&#x17e;" horiz-adv-x="535" 
d="M20 0zM515 395l-275 -260h275v-135h-495v135l275 260h-275v135h495v-135zM205 741l65 -80l65 80h125l-120 -170h-140l-120 170h125z" />
    <glyph glyph-name="florin" unicode="&#x192;" horiz-adv-x="460" 
d="M340 575q-15 0 -26.5 -10t-13.5 -25l-5 -50h155l-20 -135h-165l-55 -385q-5 -32 -20 -59.5t-38.5 -47.5t-53 -31.5t-63.5 -11.5q-32 0 -61.5 1.5t-52.5 3.5q-27 2 -51 5l20 130h110q15 0 26.5 10t13.5 25l50 360h-70l20 135h80l10 70q4 32 19 59.5t37.5 47.5t52.5 31.5
t66 11.5q34 0 74.5 -1.5t76.5 -3.5q41 -3 84 -5l-20 -125h-180v0z" />
    <glyph glyph-name="Scommaaccent" unicode="&#x218;" horiz-adv-x="670" 
d="M30 0zM210 480q0 -60 60 -60h180q98 0 144 -46t46 -144v-50q0 -98 -46 -144t-144 -46q-30 0 -63.5 1t-68 2.5l-69 3t-65.5 3.5q-73 4 -145 10v135q73 -4 142 -8q59 -3 122 -5t107 -2q23 0 36.5 13.5t13.5 36.5v90h-230q-105 0 -152.5 47.5t-47.5 152.5v30
q0 105 47.5 152.5t152.5 47.5h351v-140h-311q-60 0 -60 -60v-20zM255 -39h170v-130l-70 -110h-80l40 100h-60v140z" />
    <glyph glyph-name="scommaaccent" unicode="&#x219;" horiz-adv-x="580" 
d="M20 0zM195 365q0 -15 10 -25t25 -10h180q68 0 109 -41t41 -109v-40q0 -68 -41 -109t-109 -41q-64 0 -131 3t-123 7q-65 4 -126 10v130q54 -4 109 -8q48 -3 104 -5t107 -2q15 0 25 10t10 25v35h-215q-68 0 -109 41t-41 109v35q0 68 41 109t109 41h340v-130h-280
q-15 0 -25 -10t-10 -25zM205 -39h170v-130l-70 -110h-80l40 100h-60v140z" />
    <glyph glyph-name="circumflex" unicode="&#x2c6;" horiz-adv-x="380" 
d="M0 635l120 170h140l120 -170h-125l-65 80l-65 -80h-125z" />
    <glyph glyph-name="caron" unicode="&#x2c7;" horiz-adv-x="380" 
d="M125 805l65 -80l65 80h125l-120 -170h-140l-120 170h125z" />
    <glyph glyph-name="breve" unicode="&#x2d8;" horiz-adv-x="360" 
d="M130 655q-130 0 -130 130v30h130v-25q0 -15 10 -25t25 -10h30q15 0 25 10t10 25v25h130v-30q0 -130 -130 -130h-100z" />
    <glyph glyph-name="dotaccent" unicode="&#x2d9;" horiz-adv-x="170" 
d="M0 805h170v-140h-170v140z" />
    <glyph glyph-name="ring" unicode="&#x2da;" horiz-adv-x="0" 
d="M-100 830q49 0 74.5 -24t25.5 -66v-15q0 -42 -25.5 -66t-74.5 -24h-60q-49 0 -74.5 24t-25.5 66v15q0 42 25.5 66t74.5 24h60zM-85 735q0 30 -30 30h-30q-30 0 -30 -30v-5q0 -30 30 -30h30q30 0 30 30v5z" />
    <glyph glyph-name="ogonek" unicode="&#x2db;" horiz-adv-x="205" 
d="M215 0q-34 -13 -60 -28q-23 -14 -41.5 -31.5t-18.5 -40.5q0 -25 30 -25q13 0 27 1.5t26 3.5q14 2 27 5v-75q-14 -3 -31 -5q-14 -2 -32 -3.5t-37 -1.5q-53 0 -79 23.5t-26 61.5q0 32 17.5 53.5t39.5 35.5q26 16 58 26h100z" />
    <glyph glyph-name="tilde" unicode="&#x2dc;" horiz-adv-x="350" 
d="M350 765q-9 -32 -24 -58q-14 -22 -35.5 -39.5t-55.5 -17.5q-21 0 -36.5 8t-29 17t-26.5 17t-28 8q-14 0 -23 -6t-15 -14q-7 -9 -12 -20l-65 40q8 31 24 57q13 22 35 40t56 18q21 0 36.5 -8t29 -17t26.5 -17t28 -8q13 0 22.5 6t15.5 14q7 9 12 20z" />
    <glyph glyph-name="hungarumlaut" unicode="&#x2dd;" horiz-adv-x="380" 
d="M175 635l70 170h135l-100 -170h-105zM0 635l70 170h135l-100 -170h-105z" />
    <glyph glyph-name="afii10023" unicode="&#x401;" horiz-adv-x="635" 
d="M615 0h-555v700h555v-140h-375v-135h295v-140h-295v-145h375v-140zM140 900h170v-140h-170v140zM370 900h170v-140h-170v140z" />
    <glyph glyph-name="afii10051" unicode="&#x402;" horiz-adv-x="790" 
d="M760 140q0 -68 -41 -109t-109 -41q-30 0 -58.5 1.5t-51.5 3.5q-26 2 -50 5v135h95q15 0 25 10t10 25v100q0 23 -13.5 36.5t-36.5 13.5q-30 0 -65 -1.5t-65 -3.5q-35 -3 -70 -5v-310h-180v560h-140v140h500v-140h-180v-110q39 2 79 5q35 2 77 3.5t84 1.5q98 0 144 -46
t46 -144v-130z" />
    <glyph glyph-name="afii10052" unicode="&#x403;" horiz-adv-x="615" 
d="M240 0h-180v700h545v-140h-365v-560zM260 730l60 170h180l-110 -170h-130z" />
    <glyph glyph-name="afii10053" unicode="&#x404;" horiz-adv-x="620" 
d="M230 -10q-98 0 -144 46t-46 144v320q0 105 47.5 152.5t152.5 47.5h360v-140h-320q-60 0 -60 -60v-85h266v-140h-266v-95q0 -23 13.5 -36.5t36.5 -13.5q19 0 44 0.5t52 1.5t54.5 2t53.5 3q61 4 126 8v-135q-67 -6 -133 -10q-57 -4 -120.5 -7t-116.5 -3z" />
    <glyph glyph-name="afii10054" unicode="&#x405;" horiz-adv-x="670" 
d="M210 480q0 -60 60 -60h180q98 0 144 -46t46 -144v-50q0 -98 -46 -144t-144 -46q-30 0 -63.5 1t-68 2.5l-69 3t-65.5 3.5q-73 4 -145 10v135q73 -4 142 -8q59 -3 122 -5t107 -2q23 0 36.5 13.5t13.5 36.5v90h-230q-105 0 -152.5 47.5t-47.5 152.5v30q0 105 47.5 152.5
t152.5 47.5h351v-140h-311q-60 0 -60 -60v-20z" />
    <glyph glyph-name="afii10055" unicode="&#x406;" horiz-adv-x="420" 
d="M390 0h-360v140h90v420h-90v140h360v-140h-90v-420h90v-140z" />
    <glyph glyph-name="afii10056" unicode="&#x407;" horiz-adv-x="420" 
d="M390 0h-360v140h90v420h-90v140h360v-140h-90v-420h90v-140zM10 890h170v-140h-170v140zM240 890h170v-140h-170v140z" />
    <glyph glyph-name="afii10057" unicode="&#x408;" horiz-adv-x="460" 
d="M10 135q31 -2 61 -3q26 -1 53 -1.5t46 -0.5q23 0 36.5 13.5t13.5 36.5v380h-130v140h310v-520q0 -98 -46 -144t-144 -46q-34 0 -69.5 1.5t-64.5 3.5q-34 2 -66 5v135z" />
    <glyph glyph-name="afii10058" unicode="&#x409;" horiz-adv-x="1095" 
d="M270 145q-5 -72 -46 -113.5t-109 -41.5q-19 0 -37.5 1.5t-33.5 3.5q-18 2 -34 5v135h45q19 0 31.5 13t13.5 32l30 520h520v-240h215q105 0 152.5 -47.5t47.5 -152.5v-60q0 -105 -47.5 -152.5t-152.5 -47.5h-385v560h-185zM885 260q0 60 -60 60h-175v-180h175q60 0 60 60
v60z" />
    <glyph glyph-name="afii10059" unicode="&#x40a;" horiz-adv-x="1080" 
d="M635 440h215q105 0 152.5 -47.5t47.5 -152.5v-40q0 -105 -47.5 -152.5t-152.5 -47.5h-385v300h-225v-300h-180v700h180v-260h225v260h170v-260zM870 240q0 60 -60 60h-175v-160h175q60 0 60 60v40z" />
    <glyph glyph-name="afii10060" unicode="&#x40b;" horiz-adv-x="790" 
d="M750 0h-180v270q0 23 -13.5 36.5t-36.5 13.5q-30 0 -65 -1.5t-65 -3.5q-35 -3 -70 -5v-310h-180v560h-140v140h500v-140h-180v-110q39 2 79 5q35 2 77 3.5t84 1.5q98 0 144 -46t46 -144v-270z" />
    <glyph glyph-name="afii10061" unicode="&#x40c;" horiz-adv-x="675" 
d="M280 710l60 170h180l-110 -170h-130zM480 355l195 -355h-190l-155 285h-90v-285h-180v700h180v-275h90l100 190q22 42 54.5 68.5t85.5 26.5q17 0 33 -1.5t29 -3.5q15 -3 28 -5v-135h-40q-15 0 -27 -9.5t-18 -20.5z" />
    <glyph glyph-name="afii10062" unicode="&#x40e;" horiz-adv-x="690" 
d="M-20 700h200l180 -355l150 355h200l-255 -550q-17 -38 -37.5 -67.5t-46.5 -50t-59.5 -31.5t-76.5 -11q-21 0 -40.5 1.5t-35.5 3.5q-18 2 -34 5v135h90q15 0 25 6.5t15 16.5t5 21.5t-5 20.5zM300 730q-130 0 -130 130v30h130v-25q0 -15 10 -25t25 -10h30q15 0 25 10t10 25
v25h130v-30q0 -130 -130 -130h-100z" />
    <glyph glyph-name="afii10145" unicode="&#x40f;" horiz-adv-x="730" 
d="M60 0v700h180v-560h250v560h180v-700h-215l-10 -130h-160l-10 130h-215z" />
    <glyph glyph-name="afii10017" unicode="&#x410;" horiz-adv-x="710" 
d="M185 0h-195l265 700h200l265 -700h-195l-45 125h-250zM275 255h160l-80 235z" />
    <glyph glyph-name="afii10018" unicode="&#x411;" horiz-adv-x="710" 
d="M240 430h240q105 0 152.5 -47.5t47.5 -152.5v-30q0 -105 -47.5 -152.5t-152.5 -47.5h-420v700h555v-140h-375v-130zM500 230q0 60 -60 60h-200v-150h200q60 0 60 60v30z" />
    <glyph glyph-name="afii10019" unicode="&#x412;" horiz-adv-x="710" 
d="M60 700h400q98 0 144 -44.5t46 -135.5q0 -60 -26 -97.5t-64 -52.5q22 -6 44 -19t38.5 -35t27 -53.5t10.5 -72.5q0 -98 -46 -144t-144 -46h-430v700zM500 220q0 60 -60 60h-200v-140h200q60 0 60 60v20zM470 500q0 60 -60 60h-170v-140h170q60 0 60 60v20z" />
    <glyph glyph-name="afii10020" unicode="&#x413;" horiz-adv-x="615" 
d="M240 0h-180v700h545v-140h-365v-560z" />
    <glyph glyph-name="afii10021" unicode="&#x414;" horiz-adv-x="780" 
d="M160 700h525v-560h75v-270h-170l-10 130h-390l-10 -130h-170v270h65q16 18 28 41q11 20 20.5 47.5t11.5 61.5zM505 140v420h-185l-15 -250q-2 -38 -11 -69t-19 -54q-11 -26 -25 -47h255z" />
    <glyph glyph-name="afii10022" unicode="&#x415;" horiz-adv-x="635" 
d="M615 0h-555v700h555v-140h-375v-135h295v-140h-295v-145h375v-140z" />
    <glyph glyph-name="afii10024" unicode="&#x416;" horiz-adv-x="1010" 
d="M100 535q-6 11 -18 20.5t-27 9.5h-40v135q13 2 28 5q13 2 29 3.5t33 1.5q53 0 85.5 -26.5t54.5 -68.5l100 -190h70v275h180v-275h70l100 190q22 42 54.5 68.5t85.5 26.5q17 0 33 -1.5t29 -3.5q15 -3 28 -5v-135h-40q-15 0 -27 -9.5t-18 -20.5l-95 -180l195 -355h-190
l-155 285h-70v-285h-180v285h-70l-155 -285h-190l195 355z" />
    <glyph glyph-name="afii10025" unicode="&#x417;" horiz-adv-x="640" 
d="M610 180q0 -98 -46 -144t-144 -46q-60 0 -130 3t-130 7q-70 4 -140 10v135q68 -4 133 -8q56 -3 117.5 -5t109.5 -2q23 0 36.5 13.5t13.5 36.5v40q0 60 -60 60h-240v140h220q60 0 60 60v20q0 60 -60 60h-320v140h370q98 0 144 -44.5t46 -135.5q0 -60 -27.5 -97.5
t-72.5 -52.5q22 -6 44 -19t38.5 -35t27 -53.5t10.5 -72.5v-10z" />
    <glyph glyph-name="afii10026" unicode="&#x418;" horiz-adv-x="730" 
d="M670 0h-180v430l-240 -430h-190v700h180v-430l240 430h190v-700z" />
    <glyph glyph-name="afii10027" unicode="&#x419;" horiz-adv-x="730" 
d="M490 0v430l-240 -430h-190v700h180v-430l240 430h190v-700h-180zM310 750q-130 0 -130 130v30h130v-25q0 -15 10 -25t25 -10h30q15 0 25 10t10 25v25h130v-30q0 -130 -130 -130h-100z" />
    <glyph glyph-name="afii10028" unicode="&#x41a;" horiz-adv-x="675" 
d="M480 355l195 -355h-190l-155 285h-90v-285h-180v700h180v-275h90l100 190q22 42 54.5 68.5t85.5 26.5q17 0 33 -1.5t29 -3.5q15 -3 28 -5v-135h-40q-15 0 -27 -9.5t-18 -20.5z" />
    <glyph glyph-name="afii10029" unicode="&#x41b;" horiz-adv-x="745" 
d="M270 145q-5 -72 -46 -113.5t-109 -41.5q-19 0 -37.5 1.5t-33.5 3.5q-18 2 -34 5v135h45q19 0 31.5 13t13.5 32l30 520h555v-700h-180v560h-210z" />
    <glyph glyph-name="afii10030" unicode="&#x41c;" horiz-adv-x="900" 
d="M660 390l-140 -250h-140l-140 250v-390h-180v700h190l200 -370l200 370h190v-700h-180v390z" />
    <glyph glyph-name="afii10031" unicode="&#x41d;" horiz-adv-x="730" 
d="M670 0h-180v285h-250v-285h-180v700h180v-275h250v275h180v-700z" />
    <glyph glyph-name="afii10032" unicode="&#x41e;" horiz-adv-x="730" 
d="M510 510q0 60 -60 60h-170q-60 0 -60 -60v-320q0 -60 60 -60h170q60 0 60 60v320zM690 190q0 -105 -47.5 -152.5t-152.5 -47.5h-250q-105 0 -152.5 47.5t-47.5 152.5v320q0 105 47.5 152.5t152.5 47.5h250q105 0 152.5 -47.5t47.5 -152.5v-320z" />
    <glyph glyph-name="afii10033" unicode="&#x41f;" horiz-adv-x="730" 
d="M670 0h-180v560h-250v-560h-180v700h610v-700z" />
    <glyph glyph-name="afii10034" unicode="&#x420;" horiz-adv-x="710" 
d="M60 700h420q105 0 152.5 -47.5t47.5 -152.5v-100q0 -105 -47.5 -152.5t-152.5 -47.5h-240v-200h-180v700zM500 500q0 60 -60 60h-200v-220h200q60 0 60 60v100z" />
    <glyph glyph-name="afii10035" unicode="&#x421;" horiz-adv-x="620" 
d="M230 -10q-98 0 -144 46t-46 144v320q0 105 47.5 152.5t152.5 47.5h360v-140h-320q-60 0 -60 -60v-320q0 -23 13.5 -36.5t36.5 -13.5q19 0 44 0.5t52 1.5t54.5 2t53.5 3q61 4 126 8v-135q-67 -6 -133 -10q-57 -4 -120.5 -7t-116.5 -3z" />
    <glyph glyph-name="afii10036" unicode="&#x422;" horiz-adv-x="620" 
d="M400 0h-180v560h-210v140h600v-140h-210v-560z" />
    <glyph glyph-name="afii10037" unicode="&#x423;" horiz-adv-x="690" 
d="M-20 700h200l180 -355l150 355h200l-255 -550q-17 -38 -37.5 -67.5t-46.5 -50t-59.5 -31.5t-76.5 -11q-21 0 -40.5 1.5t-35.5 3.5q-18 2 -34 5v135h90q15 0 25 6.5t15 16.5t5 21.5t-5 20.5z" />
    <glyph glyph-name="afii10038" unicode="&#x424;" horiz-adv-x="880" 
d="M850 250q0 -105 -47.5 -152.5t-152.5 -47.5h-120v-70h-180v70h-120q-105 0 -152.5 47.5t-47.5 152.5v200q0 105 47.5 152.5t152.5 47.5h120v70h180v-70h120q105 0 152.5 -47.5t47.5 -152.5v-200zM670 450q0 60 -60 60h-90v-320h90q60 0 60 60v200zM210 250q0 -60 60 -60
h90v320h-90q-60 0 -60 -60v-200z" />
    <glyph glyph-name="afii10039" unicode="&#x425;" horiz-adv-x="660" 
d="M465 700h200l-225 -350l230 -350h-200l-140 220l-140 -220h-200l230 350l-225 350h199l136 -220z" />
    <glyph glyph-name="afii10040" unicode="&#x426;" horiz-adv-x="765" 
d="M60 0v700h180v-560h250v560h180v-560h75v-270h-170l-10 130h-505z" />
    <glyph glyph-name="afii10041" unicode="&#x427;" horiz-adv-x="705" 
d="M220 410q0 -23 13.5 -36.5t36.5 -13.5q30 0 64 1.5t63 3.5q34 2 68 5v330h180v-700h-180v230q-36 -3 -76 -5q-34 -2 -75.5 -3.5t-83.5 -1.5q-98 0 -144 46t-46 144v290h180v-290z" />
    <glyph glyph-name="afii10042" unicode="&#x428;" horiz-adv-x="1000" 
d="M940 0h-880v700h180v-560h170v560h180v-560h170v560h180v-700z" />
    <glyph glyph-name="afii10043" unicode="&#x429;" horiz-adv-x="1035" 
d="M60 0v700h180v-560h170v560h180v-560h170v560h180v-560h75v-270h-170l-10 130h-775z" />
    <glyph glyph-name="afii10044" unicode="&#x42a;" horiz-adv-x="800" 
d="M330 700v-240h240q105 0 152.5 -47.5t47.5 -152.5v-60q0 -105 -47.5 -152.5t-152.5 -47.5h-420v560h-140v140h320zM590 260q0 60 -60 60h-200v-180h200q60 0 60 60v60z" />
    <glyph glyph-name="afii10045" unicode="&#x42b;" horiz-adv-x="990" 
d="M240 460h230q105 0 152.5 -47.5t47.5 -152.5v-60q0 -105 -47.5 -152.5t-152.5 -47.5h-410v700h180v-240zM930 0h-180v700h180v-700zM490 260q0 60 -60 60h-190v-180h190q60 0 60 60v60z" />
    <glyph glyph-name="afii10046" unicode="&#x42c;" horiz-adv-x="710" 
d="M240 460h240q105 0 152.5 -47.5t47.5 -152.5v-60q0 -105 -47.5 -152.5t-152.5 -47.5h-420v700h180v-240zM500 260q0 60 -60 60h-200v-180h200q60 0 60 60v60z" />
    <glyph glyph-name="afii10047" unicode="&#x42d;" horiz-adv-x="620" 
d="M390 -10q-53 0 -117 3t-121 7q-66 4 -132 10v135q65 -4 126 -8q52 -3 108 -5t96 -2q23 0 36.5 13.5t13.5 36.5v95h-266v140h266v85q0 60 -60 60h-310v140h350q105 0 152.5 -47.5t47.5 -152.5v-320q0 -98 -46 -144t-144 -46z" />
    <glyph glyph-name="afii10048" unicode="&#x42e;" horiz-adv-x="970" 
d="M930 190q0 -105 -47.5 -152.5t-152.5 -47.5h-200q-105 0 -152.5 47.5t-47.5 152.5v95h-90v-285h-180v700h180v-275h90v85q0 105 47.5 152.5t152.5 47.5h200q105 0 152.5 -47.5t47.5 -152.5v-320zM750 510q0 60 -60 60h-120q-60 0 -60 -60v-320q0 -60 60 -60h120
q60 0 60 60v320z" />
    <glyph glyph-name="afii10049" unicode="&#x42f;" horiz-adv-x="720" 
d="M660 0h-180v230h-135l-125 -230h-190l130 240q-64 15 -92 61t-28 129v70q0 105 47.5 152.5t152.5 47.5h420v-700zM220 430q0 -60 60 -60h200v190h-200q-60 0 -60 -60v-70z" />
    <glyph glyph-name="afii10065" unicode="&#x430;" horiz-adv-x="595" 
d="M260 130q19 0 40 3t39 7q21 4 41 10v60h-145q-15 0 -25 -10t-10 -25v-10q0 -15 10 -25t25 -10h25zM175 -10q-68 0 -109 41t-41 109v45q0 68 41 109t109 41h205v40q0 15 -10 25t-25 10q-40 0 -86.5 -2.5t-87.5 -5.5q-48 -4 -96 -7v125q55 6 112 10q49 4 107 7t111 3
q68 0 109 -41t41 -109v-390h-155l-10 50q-26 -17 -56 -30q-26 -11 -58 -20.5t-66 -9.5h-35z" />
    <glyph glyph-name="afii10066" unicode="&#x431;" horiz-adv-x="610" 
d="M560 725l15 -140l-310 -35q-50 -6 -50 -50v-60q29 6 59 10q26 4 55.5 7t55.5 3h45q68 0 109 -41t41 -109v-160q0 -75 -42.5 -117.5t-117.5 -42.5h-220q-75 0 -117.5 42.5t-42.5 117.5v355q0 72 48.5 121t131.5 59zM365 125q40 0 40 40v125q0 15 -10 25t-25 10h-35
q-21 0 -42.5 -1.5t-38.5 -3.5q-20 -3 -39 -5v-150q0 -40 40 -40h110z" />
    <glyph glyph-name="afii10067" unicode="&#x432;" horiz-adv-x="600" 
d="M580 140q0 -30 -11 -55.5t-30.5 -44.5t-47 -29.5t-61.5 -10.5h-380v530h350q34 0 61.5 -10.5t47 -29t30.5 -43t11 -52.5q0 -42 -21 -73t-59 -42q45 -8 77.5 -44t32.5 -96zM405 170q0 15 -10 25t-25 10h-145v-85h145q15 0 25 10t10 25v15zM375 375q0 15 -10 25t-25 10
h-115v-90h115q15 0 25 10t10 25v20z" />
    <glyph glyph-name="afii10068" unicode="&#x433;" horiz-adv-x="490" 
d="M480 530v-135h-255v-395h-175v530h430z" />
    <glyph glyph-name="afii10069" unicode="&#x434;" horiz-adv-x="690" 
d="M285 250q-2 -26 -8.5 -47.5t-13.5 -36.5q-8 -18 -18 -31h175v260h-125zM595 530v-395h75v-255h-166l-10 120h-308l-10 -120h-166v255h65q11 13 21 30q8 14 15 33t9 42l20 290h455z" />
    <glyph glyph-name="afii10070" unicode="&#x435;" horiz-adv-x="600" 
d="M255 415q-40 0 -40 -40v-55h170v55q0 40 -40 40h-90zM40 380q0 75 42.5 117.5t117.5 42.5h200q75 0 117.5 -42.5t42.5 -117.5v-185h-345v-40q0 -15 10 -25t25 -10q43 0 93.5 2t94.5 5l102 8v-125q-58 -6 -119 -10q-52 -4 -113 -7t-118 -3q-68 0 -109 41t-41 109v240z" />
    <glyph glyph-name="afii10072" unicode="&#x436;" horiz-adv-x="875" 
d="M190 0h-190l150 265l-50 100q-6 11 -18.5 20.5t-31.5 9.5h-35v135l25 5q11 2 25.5 3.5t29.5 1.5q28 0 50.5 -8t40.5 -21t31.5 -30t22.5 -36l55 -110h55v195h175v-195h55l55 110q9 19 22.5 36t31.5 30t40.5 21t50.5 8q15 0 29.5 -1.5t25.5 -3.5l25 -5v-135h-35
q-19 0 -31.5 -9.5t-18.5 -20.5l-50 -100l150 -265h-190l-110 200h-50v-200h-175v200h-50z" />
    <glyph glyph-name="afii10073" unicode="&#x437;" horiz-adv-x="550" 
d="M100 200v125h200q15 0 25 10t10 25v10q0 15 -10 25t-25 10h-270v125h330q34 0 61.5 -10.5t47 -29t30.5 -43t11 -52.5q0 -42 -22.5 -73t-67.5 -42q45 -8 77.5 -44t32.5 -96q0 -68 -41 -109t-109 -41q-60 0 -123.5 3t-116.5 7q-62 4 -120 10v120q51 -4 103 -8q45 -3 97 -5
t100 -2q15 0 25 10t10 25v15q0 15 -10 25t-25 10h-220z" />
    <glyph glyph-name="afii10074" unicode="&#x438;" 
d="M395 530h185v-530h-175v290l-170 -290h-185v530h175v-290z" />
    <glyph glyph-name="afii10075" unicode="&#x439;" 
d="M260 580q-130 0 -130 130v30h130v-25q0 -15 10 -25t25 -10h30q15 0 25 10t10 25v25h130v-30q0 -130 -130 -130h-100zM395 530h185v-530h-175v290l-170 -290h-185v530h175v-290z" />
    <glyph glyph-name="afii10076" unicode="&#x43a;" horiz-adv-x="600" 
d="M300 200h-75v-200h-175v530h175v-195h80l55 110q9 19 22.5 36t31.5 30t40.5 21t50.5 8q15 0 29.5 -1.5t25.5 -3.5l25 -5v-135h-35q-19 0 -31.5 -9.5t-18.5 -20.5l-50 -100l150 -265h-190z" />
    <glyph glyph-name="afii10077" unicode="&#x43b;" horiz-adv-x="640" 
d="M590 530v-530h-175v395h-140l-15 -255q-4 -68 -45 -109t-105 -41q-15 0 -32.5 1.5t-32.5 3.5q-18 2 -35 5v130h40q38 0 40 40l20 360h480z" />
    <glyph glyph-name="afii10078" unicode="&#x43c;" horiz-adv-x="780" 
d="M455 90h-130l-100 180v-270h-175v530h185l155 -280l155 280h185v-530h-175v270z" />
    <glyph glyph-name="afii10079" unicode="&#x43d;" 
d="M405 335v195h175v-530h-175v200h-180v-200h-175v530h175v-195h180z" />
    <glyph glyph-name="afii10080" unicode="&#x43e;" 
d="M590 150q0 -75 -42.5 -117.5t-117.5 -42.5h-230q-75 0 -117.5 42.5t-42.5 117.5v230q0 75 42.5 117.5t117.5 42.5h230q75 0 117.5 -42.5t42.5 -117.5v-230zM415 365q0 40 -40 40h-120q-40 0 -40 -40v-200q0 -40 40 -40h120q40 0 40 40v200z" />
    <glyph glyph-name="afii10081" unicode="&#x43f;" 
d="M580 530v-530h-175v395h-180v-395h-175v530h530z" />
    <glyph glyph-name="afii10082" unicode="&#x440;" 
d="M225 135h150q40 0 40 40v185q0 15 -10 25t-25 10h-35q-19 0 -40 -3t-39 -7q-21 -4 -41 -10v-240zM225 0v-170h-175v700h155l10 -50q26 17 56 30q26 11 58 20.5t66 9.5h45q68 0 109 -41t41 -109v-230q0 -75 -42.5 -117.5t-117.5 -42.5h-205z" />
    <glyph glyph-name="afii10083" unicode="&#x441;" horiz-adv-x="550" 
d="M40 370q0 75 42.5 117.5t117.5 42.5h320v-135h-265q-40 0 -40 -40v-195q0 -15 10 -25t25 -10q39 0 86 2t88 5l96 8v-130q-56 -6 -113 -10q-49 -4 -106.5 -7t-110.5 -3q-68 0 -109 41t-41 109v230z" />
    <glyph glyph-name="afii10084" unicode="&#x442;" horiz-adv-x="525" 
d="M350 395v-395h-175v395h-165v135h505v-135h-165z" />
    <glyph glyph-name="afii10085" unicode="&#x443;" horiz-adv-x="570" 
d="M405 530h185l-200 -550q-29 -79 -75 -119.5t-125 -40.5q-19 0 -41.5 1.5t-42.5 3.5q-23 2 -46 5v130h90q38 0 49.5 21t-4.5 59l-205 490h185l125 -340z" />
    <glyph glyph-name="afii10086" unicode="&#x444;" horiz-adv-x="795" 
d="M755 160q0 -75 -42.5 -117.5t-117.5 -42.5h-110v-170h-175v170h-110q-75 0 -117.5 42.5t-42.5 117.5v210q0 75 42.5 117.5t117.5 42.5h110v170h175v-170h110q75 0 117.5 -42.5t42.5 -117.5v-210zM215 175q0 -40 40 -40h70v260h-70q-40 0 -40 -40v-180zM580 355
q0 40 -40 40h-60v-260h60q40 0 40 40v180z" />
    <glyph glyph-name="afii10087" unicode="&#x445;" horiz-adv-x="570" 
d="M380 530h195l-170 -265l175 -265h-195l-100 160l-100 -160h-195l175 265l-170 265h195l95 -160z" />
    <glyph glyph-name="afii10088" unicode="&#x446;" horiz-adv-x="675" 
d="M480 0h-430v530h175v-395h180v395h175v-395h75v-255h-165z" />
    <glyph glyph-name="afii10089" unicode="&#x447;" horiz-adv-x="615" 
d="M390 160q-32 -3 -66 -5q-29 -2 -64.5 -3.5t-69.5 -1.5q-68 0 -109 41t-41 109v230h175v-210q0 -15 10 -25t25 -10q24 0 49 0.5t45 1.5q24 1 46 3v240h175v-530h-175v160z" />
    <glyph glyph-name="afii10090" unicode="&#x448;" horiz-adv-x="855" 
d="M50 0v530h175v-395h115v395h175v-395h115v395h175v-530h-755z" />
    <glyph glyph-name="afii10091" unicode="&#x449;" horiz-adv-x="900" 
d="M705 0h-655v530h175v-395h115v395h175v-395h115v395h175v-395h75v-255h-165z" />
    <glyph glyph-name="afii10092" unicode="&#x44a;" horiz-adv-x="700" 
d="M325 530v-165h205q68 0 109 -41t41 -109v-65q0 -68 -41 -109t-109 -41h-380v395h-140v135h315zM470 125q15 0 25 10t10 25v45q0 15 -10 25t-25 10h-145v-115h145z" />
    <glyph glyph-name="afii10093" unicode="&#x44b;" horiz-adv-x="860" 
d="M50 0v530h175v-165h195q68 0 109 -41t41 -109v-65q0 -68 -41 -109t-109 -41h-370zM360 125q15 0 25 10t10 25v44q0 15 -10 25t-25 10h-135v-114h135zM810 0h-175v530h175v-530z" />
    <glyph glyph-name="afii10094" unicode="&#x44c;" horiz-adv-x="600" 
d="M50 0v530h175v-165h205q68 0 109 -41t41 -109v-65q0 -68 -41 -109t-109 -41h-380zM370 125q15 0 25 10t10 25v45q0 15 -10 25t-25 10h-145v-115h145z" />
    <glyph glyph-name="afii10095" unicode="&#x44d;" horiz-adv-x="550" 
d="M510 140q0 -68 -41 -109t-109 -41q-53 0 -111 3t-107 7q-57 4 -112 10v120l96 -8q41 -3 87.5 -5t86.5 -2q15 0 25 10t10 25v50h-225v125h225v40q0 40 -40 40h-255v125h310q75 0 117.5 -42.5t42.5 -117.5v-230z" />
    <glyph glyph-name="afii10096" unicode="&#x44e;" horiz-adv-x="850" 
d="M300 335v45q0 75 42.5 117.5t117.5 42.5h190q75 0 117.5 -42.5t42.5 -117.5v-230q0 -75 -42.5 -117.5t-117.5 -42.5h-190q-75 0 -117.5 42.5t-42.5 117.5v50h-75v-200h-175v530h175v-195h75zM635 365q0 40 -40 40h-80q-40 0 -40 -40v-200q0 -40 40 -40h80q40 0 40 40v200
z" />
    <glyph glyph-name="afii10097" unicode="&#x44f;" horiz-adv-x="620" 
d="M570 530v-530h-175v165h-85l-95 -165h-185l100 175q-42 15 -66 51t-24 89v65q0 68 41 109t109 41h380zM250 405q-15 0 -25 -10t-10 -25v-45q0 -15 10 -25t25 -10h145v115h-145z" />
    <glyph glyph-name="afii10071" unicode="&#x451;" horiz-adv-x="600" 
d="M100 730h170v-140h-170v140zM330 730h170v-140h-170v140zM255 415q-40 0 -40 -40v-55h170v55q0 40 -40 40h-90zM40 380q0 75 42.5 117.5t117.5 42.5h200q75 0 117.5 -42.5t42.5 -117.5v-185h-345v-40q0 -15 10 -25t25 -10q43 0 93.5 2t94.5 5l102 8v-125q-58 -6 -119 -10
q-52 -4 -113 -7t-118 -3q-68 0 -109 41t-41 109v240z" />
    <glyph glyph-name="afii10099" unicode="&#x452;" horiz-adv-x="650" 
d="M620 140q0 -68 -41 -109t-109 -41q-23 0 -46 1.5t-42 3.5q-22 2 -42 5v130h70q15 0 25 10t10 25v115q0 15 -10 25t-25 10h-35q-21 0 -42.5 -1.5t-38.5 -3.5q-20 -3 -39 -5v-305h-175v495h-60v125h60l20 80h155v-80h125v-125h-125v-65q29 6 59 10q26 4 55.5 7t55.5 3h45
q68 0 109 -41t41 -109v-160z" />
    <glyph glyph-name="afii10100" unicode="&#x453;" horiz-adv-x="490" 
d="M480 530v-135h-255v-395h-175v530h430zM170 570l60 170h180l-110 -170h-130z" />
    <glyph glyph-name="afii10101" unicode="&#x454;" horiz-adv-x="550" 
d="M40 370q0 75 42.5 117.5t117.5 42.5h310v-125h-255q-40 0 -40 -40v-40h225v-125h-225v-50q0 -15 10 -25t25 -10q39 0 86 2t88 5l96 8v-120q-56 -6 -113 -10q-49 -4 -106.5 -7t-110.5 -3q-68 0 -109 41t-41 109v230z" />
    <glyph glyph-name="afii10102" unicode="&#x455;" horiz-adv-x="580" 
d="M195 365q0 -15 10 -25t25 -10h180q68 0 109 -41t41 -109v-40q0 -68 -41 -109t-109 -41q-64 0 -131 3t-123 7q-65 4 -126 10v130q54 -4 109 -8q48 -3 104 -5t107 -2q15 0 25 10t10 25v35h-215q-68 0 -109 41t-41 109v35q0 68 41 109t109 41h340v-130h-280q-15 0 -25 -10
t-10 -25z" />
    <glyph glyph-name="afii10103" unicode="&#x456;" horiz-adv-x="320" 
d="M270 510v-510h-175v375h-75v135h250zM95 710h175v-140h-175v140z" />
    <glyph glyph-name="afii10104" unicode="&#x457;" horiz-adv-x="340" 
d="M-30 710h170v-140h-170v140zM200 710h170v-140h-170v140zM284 510v-510h-175v375h-75v135h250z" />
    <glyph glyph-name="afii10105" unicode="&#x458;" horiz-adv-x="300" 
d="M250 -30q0 -68 -41 -109t-109 -41q-34 0 -68 1.5t-61 3.5q-32 2 -61 5v130h130q15 0 25 10t10 25v515h175v-540zM75 710h175v-140h-175v140z" />
    <glyph glyph-name="afii10106" unicode="&#x459;" horiz-adv-x="905" 
d="M555 530v-175h180q68 0 109 -41t41 -109v-55q0 -68 -41 -109t-109 -41h-345v395h-115l-15 -255q-4 -68 -45 -109t-105 -41q-15 0 -32.5 1.5t-32.5 3.5q-18 2 -35 5v130h40q38 0 40 40l20 360h445zM675 120q15 0 25 10t10 25v35q0 15 -10 25t-25 10h-120v-105h120z" />
    <glyph glyph-name="afii10107" unicode="&#x45a;" horiz-adv-x="895" 
d="M380 0v225h-155v-225h-175v530h175v-175h155v175h165v-175h180q68 0 109 -41t41 -109v-55q0 -68 -41 -109t-109 -41h-345zM665 130q15 0 25 10t10 25v25q0 15 -10 25t-25 10h-120v-95h120z" />
    <glyph glyph-name="afii10108" unicode="&#x45b;" horiz-adv-x="660" 
d="M80 620l20 80h155v-80h125v-125h-125v-65q29 6 59 10q26 4 55.5 7t55.5 3h45q68 0 109 -41t41 -109v-300h-175v280q0 15 -10 25t-25 10h-35q-21 0 -42.5 -1.5t-38.5 -3.5q-20 -3 -39 -5v-305h-175v495h-60v125h60z" />
    <glyph glyph-name="afii10109" unicode="&#x45c;" horiz-adv-x="600" 
d="M240 570l60 170h180l-110 -170h-130zM300 200h-75v-200h-175v530h175v-195h80l55 110q9 19 22.5 36t31.5 30t40.5 21t50.5 8q15 0 29.5 -1.5t25.5 -3.5l25 -5v-135h-35q-19 0 -31.5 -9.5t-18.5 -20.5l-50 -100l150 -265h-190z" />
    <glyph glyph-name="afii10110" unicode="&#x45e;" horiz-adv-x="570" 
d="M240 570q-130 0 -130 130v30h130v-25q0 -15 10 -25t25 -10h30q15 0 25 10t10 25v25h130v-30q0 -130 -130 -130h-100zM405 530h185l-200 -550q-29 -79 -75 -119.5t-125 -40.5q-19 0 -41.5 1.5t-42.5 3.5q-23 2 -46 5v130h90q38 0 49.5 21t-4.5 59l-205 490h185l125 -340z
" />
    <glyph glyph-name="afii10193" unicode="&#x45f;" 
d="M50 0v530h175v-395h180v395h175v-530h-175l-10 -120h-160l-10 120h-175z" />
    <glyph glyph-name="afii10050" unicode="&#x490;" horiz-adv-x="615" 
d="M240 560v-560h-180v700h375l10 100h160v-240h-365z" />
    <glyph glyph-name="afii10098" unicode="&#x491;" horiz-adv-x="490" 
d="M315 530l10 90h155v-225h-254v-395h-176v530h265z" />
    <glyph glyph-name="endash" unicode="&#x2013;" 
d="M30 285v130h570v-130h-570z" />
    <glyph glyph-name="emdash" unicode="&#x2014;" horiz-adv-x="800" 
d="M30 285v130h740v-130h-740z" />
    <glyph glyph-name="quoteleft" unicode="&#x2018;" horiz-adv-x="240" 
d="M210 450h-180v140l70 110h90l-40 -100h60v-150z" />
    <glyph glyph-name="quoteright" unicode="&#x2019;" horiz-adv-x="240" 
d="M30 700h180v-140l-70 -110h-90l40 100h-60v150z" />
    <glyph glyph-name="quotesinglbase" unicode="&#x201a;" horiz-adv-x="240" 
d="M30 150h180v-140l-70 -110h-90l40 100h-60v150z" />
    <glyph glyph-name="quotedblleft" unicode="&#x201c;" horiz-adv-x="460" 
d="M430 450h-180v140l70 110h90l-40 -100h60v-150zM210 450h-180v140l70 110h90l-40 -100h60v-150z" />
    <glyph glyph-name="quotedblright" unicode="&#x201d;" horiz-adv-x="460" 
d="M30 700h180v-140l-70 -110h-90l40 100h-60v150zM250 700h180v-140l-70 -110h-90l40 100h-60v150z" />
    <glyph glyph-name="quotedblbase" unicode="&#x201e;" horiz-adv-x="460" 
d="M30 150h180v-140l-70 -110h-90l40 100h-60v150zM250 150h180v-140l-70 -110h-90l40 100h-60v150z" />
    <glyph glyph-name="dagger" unicode="&#x2020;" horiz-adv-x="590" 
d="M570 480v-140h-180v-510h-180v510h-190v140h190v220h180v-220h180z" />
    <glyph glyph-name="daggerdbl" unicode="&#x2021;" horiz-adv-x="570" 
d="M380 10v-180h-180v180h-180v140h180v230h-180v140h180v180h180v-180h170v-140h-170v-230h170v-140h-170z" />
    <glyph glyph-name="bullet" unicode="&#x2022;" horiz-adv-x="360" 
d="M200 480q49 0 79.5 -30.5t30.5 -79.5v-40q0 -49 -30.5 -79.5t-79.5 -30.5h-40q-49 0 -79.5 30.5t-30.5 79.5v40q0 49 30.5 79.5t79.5 30.5h40z" />
    <glyph glyph-name="ellipsis" unicode="&#x2026;" horiz-adv-x="720" 
d="M30 150h180v-150h-180v150zM270 150h180v-150h-180v150zM510 150h180v-150h-180v150z" />
    <glyph glyph-name="perthousand" unicode="&#x2030;" horiz-adv-x="1230" 
d="M150 0l400 700h150l-390 -700h-160zM360 465q0 -60 -32.5 -92.5t-92.5 -32.5h-90q-60 0 -92.5 32.5t-32.5 92.5v120q0 60 32.5 92.5t92.5 32.5h90q60 0 92.5 -32.5t32.5 -92.5v-120zM240 585q0 35 -35 35h-30q-35 0 -35 -35v-120q0 -35 35 -35h30q35 0 35 35v120z
M840 115q0 -60 -32.5 -92.5t-92.5 -32.5h-90q-60 0 -92.5 32.5t-32.5 92.5v120q0 60 32.5 92.5t92.5 32.5h90q60 0 92.5 -32.5t32.5 -92.5v-120zM720 235q0 35 -35 35h-30q-35 0 -35 -35v-120q0 -35 35 -35h30q35 0 35 35v120zM1210 115q0 -60 -32.5 -92.5t-92.5 -32.5h-90
q-60 0 -92.5 32.5t-32.5 92.5v120q0 60 32.5 92.5t92.5 32.5h90q60 0 92.5 -32.5t32.5 -92.5v-120zM1090 235q0 35 -35 35h-30q-35 0 -35 -35v-120q0 -35 35 -35h30q35 0 35 35v120z" />
    <glyph glyph-name="guilsinglleft" unicode="&#x2039;" horiz-adv-x="361" 
d="M341 90l-101 -90l-230 265l230 265l101 -89l-152 -176z" />
    <glyph glyph-name="guilsinglright" unicode="&#x203a;" horiz-adv-x="361" 
d="M172 265l-152 176l101 89l230 -265l-230 -265l-101 90z" />
    <glyph glyph-name="zerosuperior" unicode="&#x2070;" horiz-adv-x="380" 
d="M360 465q0 -60 -32.5 -92.5t-92.5 -32.5h-90q-60 0 -92.5 32.5t-32.5 92.5v120q0 60 32.5 92.5t92.5 32.5h90q60 0 92.5 -32.5t32.5 -92.5v-120zM240 585q0 35 -35 35h-30q-35 0 -35 -35v-120q0 -35 35 -35h30q35 0 35 35v120z" />
    <glyph glyph-name="foursuperior" unicode="&#x2074;" horiz-adv-x="360" 
d="M205 415h-195v90l115 205h125l-115 -205h70v65h110v-65h35v-90h-35v-75h-110v75z" />
    <glyph glyph-name="Euro" unicode="&#x20ac;" horiz-adv-x="660" 
d="M20 325h60v40h-70l10 105h60v30q0 105 47.5 152.5t152.5 47.5h360v-140h-320q-60 0 -60 -60v-30h240v-105h-240v-40h240v-105h-240v-40q0 -23 13.5 -36.5t36.5 -13.5q19 0 44 0.5t52 1.5t54.5 2t53.5 3q61 4 126 8v-135q-67 -6 -133 -10q-57 -4 -120.5 -7t-116.5 -3
q-98 0 -144 46t-46 144v40h-70z" />
    <glyph glyph-name="afii61352" unicode="&#x2116;" horiz-adv-x="1110" 
d="M750 300h300v-100h-300v100zM670 0h-190l-240 420v-420h-180v700h190l240 -420v420h180v-700zM1070 465q0 -60 -32.5 -92.5t-92.5 -32.5h-90q-60 0 -92.5 32.5t-32.5 92.5v120q0 60 32.5 92.5t92.5 32.5h90q60 0 92.5 -32.5t32.5 -92.5v-120zM950 585q0 35 -35 35h-30
q-35 0 -35 -35v-120q0 -35 35 -35h30q35 0 35 35v120z" />
    <glyph glyph-name="trademark" unicode="&#x2122;" horiz-adv-x="930" 
d="M260 610v-280h-130v280h-120v90h370v-90h-120zM600 400l-60 110v-180h-130v370h130l110 -200l110 200h130v-370h-130v180l-60 -110h-100z" />
    <glyph glyph-name="commaaccent" horiz-adv-x="170" 
d="M0 -30h170v-130l-70 -110h-80l40 100h-60v140z" />
    <glyph glyph-name=".ttfautohint" horiz-adv-x="620" 
d="M0 0z" />
    </font>
</defs>
</svg>
