<?xml version="1.0" standalone="no"?>
<!DOCTYPE svg PUBLIC "-//W3C//DTD SVG 1.1//EN" "http://www.w3.org/Graphics/SVG/1.1/DTD/svg11.dtd" >
<svg xmlns="http://www.w3.org/2000/svg" xmlns:xlink="http://www.w3.org/1999/xlink" version="1.1">
<metadata>
Created by FontForge 20170731 at Fri Aug 12 22:50:55 2022
 By Aleksey,,,
Copyright (c) 2020 The Inter Project Authors
</metadata>
<defs>
<font id="Inter-Regular" horiz-adv-x="0" >
  <font-face 
    font-family="Inter"
    font-weight="400"
    font-stretch="normal"
    units-per-em="2048"
    panose-1="2 0 5 3 0 0 0 2 0 4"
    ascent="1638"
    descent="-410"
    x-height="1117"
    cap-height="1489"
    bbox="-1513 -655 5290 2234"
    underline-thickness="139"
    underline-position="-476"
    unicode-range="U+0020-1F852"
  />
<missing-glyph horiz-adv-x="2036" 
d="M180 -465v372h1676v-372h-1676zM180 47v372h1676v-372h-1676zM180 559v372h1676v-372h-1676zM180 1071v372h1676v-372h-1676zM180 1583v372h1676v-372h-1676z" />
    <glyph glyph-name=".notdef" horiz-adv-x="2036" 
d="M180 -465v372h1676v-372h-1676zM180 47v372h1676v-372h-1676zM180 559v372h1676v-372h-1676zM180 1071v372h1676v-372h-1676zM180 1583v372h1676v-372h-1676z" />
    <glyph glyph-name=".null" 
 />
    <glyph glyph-name="nonmarkingreturn" horiz-adv-x="682" 
 />
    <glyph glyph-name="uni0020" unicode=" " horiz-adv-x="576" 
 />
    <glyph glyph-name="uni0021" unicode="!" horiz-adv-x="570" 
d="M384 1489l-15 -1070h-168l-15 1070h198zM285 -12q-54 0 -92.5 38.5t-38.5 92.5t38.5 92.5t92.5 38.5t92.5 -38.5t38.5 -92.5t-38.5 -92.5t-92.5 -38.5z" />
    <glyph glyph-name="uni0022" unicode="&#x22;" horiz-adv-x="826" 
d="M305 1489v-512h-160v512h160zM678 1489v-512h-160v512h160z" />
    <glyph glyph-name="uni0023" unicode="#" horiz-adv-x="1291" 
d="M713 0l67 413h-378l-67 -413h-146l68 413h-222l23 146h223l61 372h-220l23 145h221l67 413h146l-68 -413h378l68 413h146l-68 -413h222l-24 -145h-222l-61 -372h219l-23 -146h-220l-68 -413h-145zM426 559h378l61 372h-378z" />
    <glyph glyph-name="uni0024" unicode="$" horiz-adv-x="1306" 
d="M593 -186v162q-212 14 -338 124t-139 284h187q9 -108 88.5 -169.5t201.5 -74.5v550l-58 17q-378 109 -378 387q0 168 122.5 280.5t313.5 131.5v170h120v-168q197 -13 324 -122.5t132 -268.5h-174q-12 97 -88.5 158.5t-193.5 72.5v-517l58 -16q58 -15 104 -31.5
t108.5 -50.5t104.5 -75.5t72 -107.5t30 -146q0 -175 -127 -294t-350 -134v-162h-120zM713 140q134 15 218 87t84 180q0 43 -16.5 78.5t-42 60t-66.5 46t-79.5 35t-91.5 28.5l-6 1v-516zM593 863v482q-120 -16 -190.5 -81.5t-70.5 -160.5q0 -167 261 -240z" />
    <glyph glyph-name="uni0025" unicode="%" horiz-adv-x="1664" 
d="M913 279v79q0 127 78 213t213 86q136 0 212 -85.5t76 -213.5v-79q0 -128 -76.5 -213.5t-211.5 -85.5q-137 0 -214 85.5t-77 213.5zM172 1132v78q0 128 78 214t213 86q136 0 212 -85.5t76 -214.5v-78q0 -128 -77 -214t-211 -86q-136 0 -213.5 86t-77.5 214zM227 0
l1024 1489h166l-1024 -1489h-166zM1062 358v-79q0 -75 34.5 -124.5t107.5 -49.5q72 0 106 49.5t34 124.5v79q0 76 -33.5 125t-106.5 49q-72 0 -107 -50t-35 -124zM320 1210v-78q0 -75 35 -125t108 -50q71 0 105 50t34 125v78q0 76 -33 125.5t-106 49.5q-72 0 -107.5 -50.5
t-35.5 -124.5z" />
    <glyph glyph-name="uni0026" unicode="&#x26;" horiz-adv-x="1309" 
d="M579 -20q-217 0 -345.5 116t-128.5 300q0 66 20.5 122.5t62.5 107t90.5 92t120.5 91.5q-89 108 -132 187.5t-43 170.5q0 151 99 244t262 93t261.5 -91t98.5 -220q0 -102 -50 -181t-147 -151l-109 -81l323 -395q62 119 62 267h166q0 -248 -119 -401l206 -251h-206
l-106 127q-70 -72 -174 -109.5t-212 -37.5zM863 251l-357 430l-55 -41q-89 -66 -130.5 -134.5t-41.5 -109.5q0 -108 82.5 -186.5t211.5 -78.5q162 0 290 120zM533 908l98 72q70 46 105 94t35 119q0 61 -51.5 112t-128.5 51q-81 0 -136.5 -59.5t-55.5 -132.5
q0 -57 34.5 -116.5t99.5 -139.5z" />
    <glyph glyph-name="uni0027" unicode="'" horiz-adv-x="453" 
d="M305 1489v-512h-160v512h160z" />
    <glyph glyph-name="uni0028" unicode="(" horiz-adv-x="741" 
d="M218 628q0 526 277 931h151q-106 -146 -178 -410t-72 -521t72 -521t178 -410h-151q-277 405 -277 931z" />
    <glyph glyph-name="uni0029" unicode=")" horiz-adv-x="741" 
d="M524 628q0 -526 -277 -931h-151q106 146 178 410t72 521t-72 521t-178 410h151q277 -405 277 -931z" />
    <glyph glyph-name="uni002A" unicode="*" horiz-adv-x="1024" 
d="M442 652l12 320l-271 -172l-70 122l286 149l-286 148l70 122l271 -172l-12 320h140l-12 -320l271 172l70 -122l-286 -148l286 -149l-70 -122l-271 172l12 -320h-140z" />
    <glyph glyph-name="uni002B" unicode="+" horiz-adv-x="1349" 
d="M593 102v398h-398v163h398v399h163v-399h399v-163h-399v-398h-163z" />
    <glyph glyph-name="uni002C" unicode="," horiz-adv-x="573" 
d="M413 204l-12 -79q-30 -197 -133 -489h-131q60 292 81 486l9 82h186z" />
    <glyph glyph-name="uni002D" unicode="-" horiz-adv-x="942" 
d="M797 719v-160h-652v160h652z" />
    <glyph glyph-name="uni002E" unicode="." horiz-adv-x="564" 
d="M282 -12q-54 0 -92.5 38.5t-38.5 92.5t38.5 92.5t92.5 38.5t92.5 -38.5t38.5 -92.5t-38.5 -92.5t-92.5 -38.5z" />
    <glyph glyph-name="uni002F" unicode="/" horiz-adv-x="730" 
d="M684 1559l-480 -1783h-157l480 1783h157z" />
    <glyph glyph-name="uni0030" unicode="0" horiz-adv-x="1280" 
d="M640 -20q-247 0 -382.5 200t-135.5 565q0 362 136.5 563.5t381.5 201.5t381.5 -201.5t136.5 -563.5q0 -365 -135.5 -565t-382.5 -200zM640 140q163 0 253 157.5t90 447.5q0 289 -90.5 448.5t-252.5 159.5t-252.5 -159.5t-90.5 -448.5q0 -290 90 -447.5t253 -157.5z" />
    <glyph glyph-name="uni0031" unicode="1" horiz-adv-x="951" 
d="M678 1489v-1489h-181v1300h-8l-364 -241v183l372 247h181z" />
    <glyph glyph-name="uni0032" unicode="2" horiz-adv-x="1239" 
d="M154 0v131l492 538q142 155 197.5 243.5t55.5 184.5q0 116 -81 186t-204 70q-128 0 -205 -77.5t-77 -204.5h-172q0 194 131 316.5t329 122.5q194 0 321 -119t127 -294q0 -124 -70 -243t-262 -325l-335 -357v-12h693v-160h-940z" />
    <glyph glyph-name="uni0033" unicode="3" horiz-adv-x="1303" 
d="M657 -20q-217 0 -357.5 108.5t-148.5 283.5h184q8 -106 98 -169t222 -63q144 0 236 73t92 191q0 126 -93 203t-259 77h-119v160h119q134 0 217 71t83 188q0 113 -74 181.5t-197 68.5q-121 0 -209 -64.5t-93 -171.5h-175q7 173 145.5 283t334.5 110q101 0 185 -32.5
t140 -88t86.5 -127.5t30.5 -151q0 -125 -65 -213.5t-179 -123.5v-12q140 -23 220 -119t80 -239q0 -183 -143.5 -303.5t-360.5 -120.5z" />
    <glyph glyph-name="uni0034" unicode="4" horiz-adv-x="1314" 
d="M119 305v149l655 1035h218v-1024h204v-160h-204v-305h-172v305h-701zM820 465v795h-11l-495 -783v-12h506z" />
    <glyph glyph-name="uni0035" unicode="5" horiz-adv-x="1245" 
d="M620 -20q-192 0 -323.5 111t-139.5 281h175q10 -101 91.5 -166.5t196.5 -65.5q137 0 227 94t90 237q0 146 -93.5 243t-235.5 98q-68 1 -140 -20.5t-119 -55.5l-169 20l91 733h773v-160h-622l-53 -439h9q47 38 116.5 61.5t142.5 23.5q205 0 339.5 -142t134.5 -359
q0 -214 -139 -354t-352 -140z" />
    <glyph glyph-name="uni0036" unicode="6" horiz-adv-x="1277" 
d="M649 -20q-78 1 -148 21t-139.5 71t-119 128.5t-80.5 202.5t-31 284q0 392 144 607.5t397 215.5q185 0 310.5 -108.5t152.5 -284.5h-178q-26 106 -99 169.5t-186 63.5q-174 0 -272.5 -151t-99.5 -422h11q61 93 157 145.5t210 52.5q95 0 180.5 -37t149 -102t101 -157.5
t37.5 -198.5q0 -139 -60.5 -253t-175 -181.5t-261.5 -65.5zM649 140q137 0 230 99t93 241q0 140 -90.5 237.5t-226.5 97.5q-137 0 -232.5 -101t-96.5 -237t92 -236.5t231 -100.5z" />
    <glyph glyph-name="uni0037" unicode="7" horiz-adv-x="1169" 
d="M201 0l666 1318v11h-768v160h954v-168l-663 -1321h-189z" />
    <glyph glyph-name="uni0038" unicode="8" horiz-adv-x="1262" 
d="M631 -20q-224 0 -365.5 117t-140.5 299q-1 140 81.5 247.5t206.5 130.5v9q-106 27 -170 119t-63 212q-1 171 127 283.5t324 112.5q194 0 322 -113t129 -283q-1 -120 -65 -212t-168 -119v-9q122 -23 204.5 -130.5t83.5 -247.5q-1 -182 -142.5 -299t-363.5 -117zM631 140
q150 0 239 72t90 192q-1 126 -94 207t-235 81q-143 0 -236 -81t-92 -207q-1 -121 87.5 -192.5t240.5 -71.5zM631 847q121 0 198.5 70.5t78.5 185.5q-1 113 -77.5 181.5t-199.5 68.5q-125 0 -201 -68.5t-75 -181.5q-1 -115 76 -185.5t200 -70.5z" />
    <glyph glyph-name="uni0039" unicode="9" horiz-adv-x="1277" 
d="M628 1510q55 -1 106 -11t103.5 -34t97 -60.5t84 -93t67.5 -127t44 -167.5t16 -211q0 -394 -144 -610t-397 -216q-186 0 -311 108t-151 287h177q25 -107 98 -171t187 -64q174 0 273 151.5t99 424.5h-11q-62 -93 -157.5 -145.5t-209.5 -52.5q-95 0 -181 37t-149 101.5
t-100.5 157t-37.5 198.5q0 137 60 250.5t175 181.5t262 66zM628 1350q-136 0 -229.5 -99t-93.5 -239q0 -141 91 -237.5t227 -96.5q135 0 231.5 101t96.5 236q0 134 -93 234.5t-230 100.5z" />
    <glyph glyph-name="uni003A" unicode=":" horiz-adv-x="564" 
d="M282 -12q-54 0 -92.5 38.5t-38.5 92.5t38.5 92.5t92.5 38.5t92.5 -38.5t38.5 -92.5t-38.5 -92.5t-92.5 -38.5zM282 817q-54 0 -92.5 38.5t-38.5 92.5t38.5 92.5t92.5 38.5t92.5 -38.5t38.5 -92.5t-38.5 -92.5t-92.5 -38.5z" />
    <glyph glyph-name="uni003B" unicode=";" horiz-adv-x="573" 
d="M413 204l-12 -79q-30 -197 -133 -489h-131q60 292 81 486l9 82h186zM308 817q-54 0 -92.5 38.5t-38.5 92.5t38.5 92.5t92.5 38.5t92.5 -38.5t38.5 -92.5t-38.5 -92.5t-92.5 -38.5z" />
    <glyph glyph-name="uni003C" unicode="&#x3c;" horiz-adv-x="1349" 
d="M207 524v116l936 477v-186l-712 -343v-12l712 -343v-186z" />
    <glyph glyph-name="uni003D" unicode="=" horiz-adv-x="1349" 
d="M227 288v157h896v-157h-896zM227 719v157h896v-157h-896z" />
    <glyph glyph-name="uni003E" unicode="&#x3e;" horiz-adv-x="1349" 
d="M1143 524l-936 -477v186l712 343v12l-712 343v186l936 -477v-116z" />
    <glyph glyph-name="uni003F" unicode="?" horiz-adv-x="1038" 
d="M381 419v9q1 101 15.5 173.5t47.5 123t70 82.5t97 69q151 92 151 250q0 105 -71 169t-176 64q-98 0 -170 -60.5t-80 -181.5h-184q8 181 130 287t304 106q190 0 306 -110.5t116 -282.5q0 -226 -204 -350q-97 -61 -136 -133.5t-41 -205.5v-9h-175zM474 -12
q-54 0 -92.5 38.5t-38.5 92.5t38.5 92.5t92.5 38.5t92.5 -38.5t38.5 -92.5t-38.5 -92.5t-92.5 -38.5z" />
    <glyph glyph-name="uni0040" unicode="@" horiz-adv-x="1917" 
d="M1015 -393q-443 0 -679.5 239t-236.5 681q0 425 237.5 666t658.5 241q158 0 293.5 -44t231.5 -119.5t164 -176.5t101 -215.5t33 -235.5q0 -69 -2.5 -123.5t-10.5 -121t-22.5 -116.5t-40 -99.5t-60 -81.5t-86 -52t-115.5 -20q-57 0 -114 15t-106 55.5t-57 98.5h-8
q-30 -72 -101.5 -118t-186.5 -42q-184 7 -284 144.5t-100 352.5q0 193 108.5 320.5t275.5 145.5q104 11 183.5 -21.5t95.5 -83.5h9v81h154v-657q0 -64 36 -109t98 -45q107 0 145 109.5t38 370.5q0 99 -26 192.5t-81 177t-134 146t-192 99t-248 36.5q-342 0 -534.5 -205.5
t-192.5 -570.5q0 -373 195.5 -573.5t566.5 -200.5q149 0 381 76l41 -134q-74 -31 -198.5 -56.5t-229.5 -25.5zM931 186q144 0 208.5 87t64.5 271q0 176 -64.5 245t-202.5 69q-120 0 -191 -91t-71 -223q0 -73 14 -135t43 -113.5t80 -80.5t119 -29z" />
    <glyph glyph-name="uni0041" unicode="A" horiz-adv-x="1384" 
d="M241 0h-189l547 1489h186l547 -1489h-189l-150 422h-602zM448 582h489l-239 672h-11z" />
    <glyph glyph-name="uni0042" unicode="B" horiz-adv-x="1332" 
d="M180 0v1489h521q223 0 340 -111t117 -284q0 -245 -242 -311v-15q53 -3 105 -29t96 -71t71.5 -116t27.5 -156q0 -86 -28.5 -156.5t-87 -125t-155.5 -84.5t-226 -30h-539zM361 160h358q167 0 246 65t79 171q0 117 -87.5 199.5t-229.5 82.5h-366v-518zM361 835h334
q125 0 208 71.5t83 187.5q0 104 -71.5 169.5t-213.5 65.5h-340v-494z" />
    <glyph glyph-name="uni0043" unicode="C" horiz-adv-x="1489" 
d="M1379 1024h-180q-32 150 -148.5 233.5t-270.5 83.5q-211 0 -347 -157.5t-136 -438.5t136 -439t347 -158q154 0 270.5 83.5t148.5 233.5h180q-41 -225 -205.5 -355t-393.5 -130q-142 0 -263.5 54t-208.5 151.5t-136.5 241.5t-49.5 318t49.5 318t136.5 241.5t208.5 151.5
t263.5 54q229 0 393.5 -130.5t205.5 -355.5z" />
    <glyph glyph-name="uni0044" unicode="D" horiz-adv-x="1472" 
d="M640 0h-460v1489h480q324 0 507 -196.5t183 -544.5q0 -351 -186 -549.5t-524 -198.5zM361 160h267q271 0 409 154.5t138 433.5q0 275 -134 428t-392 153h-288v-1169z" />
    <glyph glyph-name="uni0045" unicode="E" horiz-adv-x="1224" 
d="M180 0v1489h899v-160h-718v-503h672v-160h-672v-506h730v-160h-911z" />
    <glyph glyph-name="uni0046" unicode="F" horiz-adv-x="1201" 
d="M180 0v1489h893v-160h-712v-503h646v-160h-646v-666h-181z" />
    <glyph glyph-name="uni0047" unicode="G" horiz-adv-x="1521" 
d="M1199 1024q-48 150 -157.5 233.5t-267.5 83.5q-100 0 -186.5 -39.5t-151.5 -113t-102 -187.5t-37 -256q0 -282 137 -439.5t351 -157.5q191 0 310.5 119t123.5 318h-393v160h567v-160q0 -274 -169.5 -439.5t-438.5 -165.5q-299 0 -481 207t-182 558q0 349 181 557t471 208
q234 0 402 -134.5t209 -351.5h-186z" />
    <glyph glyph-name="uni0048" unicode="H" horiz-adv-x="1515" 
d="M180 0v1489h181v-663h794v663h180v-1489h-180v666h-794v-666h-181z" />
    <glyph glyph-name="uni0049" unicode="I" horiz-adv-x="541" 
d="M361 1489v-1489h-181v1489h181z" />
    <glyph glyph-name="uni004A" unicode="J" horiz-adv-x="1111" 
d="M751 1489h180v-1064q0 -212 -114 -328.5t-311 -116.5q-186 0 -304 100t-118 269h178q0 -94 68 -151.5t176 -57.5q118 0 181.5 73.5t63.5 211.5v1064z" />
    <glyph glyph-name="uni004B" unicode="K" horiz-adv-x="1335" 
d="M180 0v1489h181v-738h17l669 738h236l-626 -672l626 -817h-218l-518 692l-186 -209v-483h-181z" />
    <glyph glyph-name="uni004C" unicode="L" horiz-adv-x="1152" 
d="M180 0v1489h181v-1329h692v-160h-873z" />
    <glyph glyph-name="uni004D" unicode="M" horiz-adv-x="1821" 
d="M180 1489h216l506 -1236h17l506 1236h216v-1489h-169v1132h-15l-465 -1132h-163l-465 1132h-15v-1132h-169v1489z" />
    <glyph glyph-name="uni004E" unicode="N" horiz-adv-x="1541" 
d="M1361 1489v-1489h-174l-812 1169h-14v-1169h-181v1489h175l814 -1172h15v1172h177z" />
    <glyph glyph-name="uni004F" unicode="O" horiz-adv-x="1559" 
d="M1437 745q0 -174 -49 -318t-136.5 -241.5t-208.5 -151.5t-263 -54t-263.5 54t-208.5 151.5t-136.5 241.5t-49.5 318t49.5 318t136.5 241.5t208.5 151.5t263.5 54t263 -54t208.5 -151.5t136.5 -241.5t49 -318zM1263 745q0 281 -136 438.5t-347 157.5t-347 -157.5
t-136 -438.5t136 -439t347 -158t347 158t136 439z" />
    <glyph glyph-name="uni0050" unicode="P" horiz-adv-x="1300" 
d="M180 0v1489h504q128 0 226.5 -36.5t158.5 -101t90.5 -148.5t30.5 -185t-30.5 -185.5t-90.5 -150t-157.5 -102t-224.5 -36.5h-326v-544h-181zM361 704h320q170 0 250.5 85t80.5 229q0 143 -80.5 227t-253.5 84h-317v-625z" />
    <glyph glyph-name="uni0051" unicode="Q" horiz-adv-x="1559" 
d="M1437 745q0 -206 -67 -366.5t-188 -259.5l194 -259h-198l-130 175q-124 -55 -268 -55q-142 0 -263.5 54t-208.5 151.5t-136.5 241.5t-49.5 318t49.5 318t136.5 241.5t208.5 151.5t263.5 54t263 -54t208.5 -151.5t136.5 -241.5t49 -318zM721 465h198l159 -208
q185 162 185 488q0 281 -136 438.5t-347 157.5t-347 -157.5t-136 -438.5t136 -439t347 -158q84 0 163 28z" />
    <glyph glyph-name="uni0052" unicode="R" horiz-adv-x="1309" 
d="M180 0v1489h504q128 0 226 -34t158.5 -95.5t91 -144t30.5 -182.5q0 -153 -70 -261.5t-209 -156.5l337 -615h-209l-315 583q-12 -1 -37 -1h-326v-582h-181zM361 745h320q173 0 252 74t79 214q0 296 -334 296h-317v-584z" />
    <glyph glyph-name="uni0053" unicode="S" horiz-adv-x="1306" 
d="M995 1117q-13 108 -105 170.5t-230 62.5q-147 0 -237.5 -69.5t-90.5 -177.5q0 -46 20 -84.5t48.5 -63.5t71 -46.5t75 -32t73.5 -21.5l151 -40q58 -15 104 -31.5t108.5 -50.5t104.5 -75.5t72 -107.5t30 -146q0 -187 -144 -308.5t-394 -121.5q-237 0 -380 112t-156 298h187
q11 -121 109 -184t240 -63q157 0 260 74.5t103 195.5q0 43 -16.5 78.5t-42 60t-66.5 46t-79.5 35t-91.5 28.5l-184 52q-378 109 -378 387q0 122 68 218t183.5 147t257.5 51q215 0 356 -111.5t147 -281.5h-174z" />
    <glyph glyph-name="uni0054" unicode="T" horiz-adv-x="1314" 
d="M99 1329v160h1117v-160h-468v-1329h-181v1329h-468z" />
    <glyph glyph-name="uni0055" unicode="U" horiz-adv-x="1518" 
d="M1158 1489h180v-986q0 -232 -159.5 -380.5t-419.5 -148.5t-419.5 148.5t-159.5 380.5v986h181v-971q0 -167 107 -271t291 -104t291.5 104.5t107.5 270.5v971z" />
    <glyph glyph-name="uni0056" unicode="V" horiz-adv-x="1384" 
d="M241 1489l443 -1253h17l442 1253h189l-547 -1489h-186l-547 1489h189z" />
    <glyph glyph-name="uni0057" unicode="W" horiz-adv-x="1943" 
d="M451 0l-407 1489h183l311 -1213h15l317 1213h203l318 -1213h14l311 1213h184l-408 -1489h-186l-329 1187h-11l-329 -1187h-186z" />
    <glyph glyph-name="uni0058" unicode="X" horiz-adv-x="1314" 
d="M268 1489l384 -619h11l384 619h213l-469 -744l469 -745h-213l-384 608h-11l-384 -608h-213l480 745l-480 744h213z" />
    <glyph glyph-name="uni0059" unicode="Y" horiz-adv-x="1361" 
d="M52 1489h207l413 -695h17l414 695h206l-538 -875v-614h-180v614z" />
    <glyph glyph-name="uni005A" unicode="Z" horiz-adv-x="1280" 
d="M131 0v131l803 1198h-812v160h1027v-130l-803 -1199h812v-160h-1027z" />
    <glyph glyph-name="uni005B" unicode="[" horiz-adv-x="741" 
d="M241 -303v1862h431v-142h-268v-1577h268v-143h-431z" />
    <glyph glyph-name="uni005C" unicode="\" horiz-adv-x="730" 
d="M527 -224l-480 1783h157l480 -1783h-157z" />
    <glyph glyph-name="uni005D" unicode="]" horiz-adv-x="741" 
d="M500 1559v-1862h-430v143h267v1577h-267v142h430z" />
    <glyph glyph-name="uni005E" unicode="^" horiz-adv-x="960" 
d="M81 815l300 628h198l300 -628h-172l-222 474h-9l-220 -474h-175z" />
    <glyph glyph-name="uni005F" unicode="_" horiz-adv-x="925" 
d="M928 0v-160h-931v160h931z" />
    <glyph glyph-name="uni0060" unicode="`" horiz-adv-x="1018" 
d="M547 1268l-227 338h201l177 -338h-151z" />
    <glyph glyph-name="uni0061" unicode="a" horiz-adv-x="1154" 
d="M486 -26q-165 0 -273 92t-108 251q0 53 13.5 97t35.5 75.5t57 56t69 40t82 28t86 19t90 13.5q28 4 63 8t56 6t46 5.5t39.5 6.5t30.5 8t24 10.5t15.5 14t10.5 19t3 24.5v5q0 109 -59 168t-176 59q-113 0 -185.5 -48.5t-105.5 -119.5l-163 58q31 73 82 126.5t112.5 81.5
t123.5 41t130 13q35 0 68 -3t76 -13.5t79 -27.5t72 -47.5t61.5 -70.5t41 -100.5t15.5 -133.5v-736h-172v151h-9q-15 -30 -40 -59t-64.5 -56.5t-98.5 -44.5t-128 -17zM512 128q146 0 230 82t84 194v157q-5 -6 -15 -11t-26 -10t-32.5 -9t-39 -8t-40 -7t-42 -6.5t-38.5 -5
t-36 -4t-28 -3.5q-55 -7 -97 -18.5t-79 -32.5t-57 -56t-20 -82q0 -87 65 -133.5t171 -46.5z" />
    <glyph glyph-name="uni0062" unicode="b" horiz-adv-x="1271" 
d="M180 0v1489h172v-549h15q1 2 13.5 21.5t18 26.5t20 27t27 29.5t32 26t40 25t47 18.5t58 14t66.5 4q213 0 345.5 -157t132.5 -419q0 -264 -132 -421.5t-343 -157.5q-58 0 -108 13.5t-82 33t-59 46.5t-42 49t-29 44q-1 3 -2.5 5t-2.5 4h-21v-172h-166zM349 559
q0 -194 84 -311t236 -117q104 0 179 58t111 153t36 217q0 120 -35.5 213t-110 149t-180.5 56q-154 0 -237 -113t-83 -305z" />
    <glyph glyph-name="uni0063" unicode="c" horiz-adv-x="1143" 
d="M611 -23q-232 0 -369 160.5t-137 415.5q0 257 138.5 418t364.5 161q177 0 298.5 -96t143.5 -253h-171q-21 83 -91 138.5t-177 55.5q-151 0 -243 -114.5t-92 -303.5q0 -195 91 -311.5t244 -116.5q101 0 172.5 52t95.5 143h171q-22 -153 -140 -251t-299 -98z" />
    <glyph glyph-name="uni0064" unicode="d" horiz-adv-x="1271" 
d="M579 -23q-211 0 -342.5 157.5t-131.5 421.5q0 262 132 419t345 157q35 0 66.5 -4t58 -14t47 -18.5t40.5 -25t32 -26t27.5 -29.5t20.5 -26.5t18 -27t13 -21.5h14v549h172v-1489h-166v172h-20q-45 -72 -79 -105q-95 -90 -247 -90zM602 131q152 0 236 117t84 311
q0 192 -83 305t-237 113q-106 0 -180.5 -56t-110 -149t-35.5 -213q0 -122 36 -217t111 -153t179 -58z" />
    <glyph glyph-name="uni0065" unicode="e" horiz-adv-x="1192" 
d="M625 -23q-240 0 -380 156.5t-140 416.5q0 259 138.5 420.5t364.5 161.5q73 0 139.5 -17.5t129.5 -59.5t109 -105t74 -159.5t28 -217.5v-73h-811q6 -176 100 -272.5t248 -96.5q103 0 175 44t105 130l166 -46q-40 -128 -159 -205t-287 -77zM277 649h636q0 144 -83.5 236
t-221.5 92q-141 0 -231.5 -95.5t-99.5 -232.5z" />
    <glyph glyph-name="uni0066" unicode="f" horiz-adv-x="738" 
d="M655 1117v-145h-251v-972h-171v972h-181v145h181v154q0 136 92.5 212t221.5 76q100 0 163 -29l-50 -148q-48 17 -96 17q-83 0 -121.5 -41.5t-38.5 -126.5v-114h251z" />
    <glyph glyph-name="uni0067" unicode="g" horiz-adv-x="1248" 
d="M608 -442q-173 0 -285.5 62.5t-171.5 161.5l137 96q23 -31 32 -43t41 -42t61 -44t78.5 -27t107.5 -13q141 0 226 68.5t85 202.5v227h-14q-44 -71 -77 -102q-94 -88 -249 -88q-209 0 -341.5 146t-132.5 401q0 256 132 412t345 156q58 0 108 -14t80 -30t60.5 -47t40.5 -45
t29 -44q6 -8 8 -12h17v177h166v-1149q0 -105 -37.5 -185t-104 -128.5t-152.5 -72.5t-189 -24zM602 172q154 0 237 104t83 291q0 186 -83.5 298t-236.5 112q-157 0 -241.5 -115.5t-84.5 -294.5q0 -180 84.5 -287.5t241.5 -107.5z" />
    <glyph glyph-name="uni0068" unicode="h" horiz-adv-x="1210" 
d="M329 672v-672h-172v1489h172v-546h14q85 189 329 189q177 0 279 -106.5t102 -315.5v-710h-172v698q0 132 -68.5 205.5t-189.5 73.5q-130 0 -212 -81t-82 -224z" />
    <glyph glyph-name="uni0069" unicode="i" horiz-adv-x="485" 
d="M157 0v1117h172v-1117h-172zM244 1303q-50 0 -86 34.5t-36 82.5t36 82t86 34t86.5 -34t36.5 -82t-36.5 -82.5t-86.5 -34.5z" />
    <glyph glyph-name="uni006A" unicode="j" horiz-adv-x="485" 
d="M157 1117h172v-1198q0 -159 -81 -248.5t-239 -89.5h-35v160h32q151 0 151 178v1198zM241 1303q-50 0 -86 34.5t-36 82.5t36 82t86 34t86.5 -34t36.5 -82t-36.5 -82.5t-86.5 -34.5z" />
    <glyph glyph-name="uni006B" unicode="k" horiz-adv-x="1114" 
d="M157 0v1489h172v-869h20l489 497h212l-472 -477l507 -640h-218l-418 529l-120 -111v-418h-172z" />
    <glyph glyph-name="uni006C" unicode="l" horiz-adv-x="485" 
d="M329 1489v-1489h-172v1489h172z" />
    <glyph glyph-name="uni006D" unicode="m" horiz-adv-x="1780" 
d="M157 0v1117h166v-174h14q35 90 113.5 139.5t186.5 49.5q213 0 300 -189h11q44 89 130.5 139t204.5 50q156 0 248 -97t92 -287v-748h-171v748q0 117 -63.5 173t-163.5 56q-115 0 -181.5 -69.5t-66.5 -180.5v-727h-174v765q0 95 -61.5 153.5t-159.5 58.5q-103 0 -178 -79.5
t-75 -199.5v-698h-172z" />
    <glyph glyph-name="uni006E" unicode="n" horiz-adv-x="1198" 
d="M329 672v-672h-172v1117h166v-174h14q87 189 326 189q175 0 276.5 -107t101.5 -315v-710h-171v698q0 131 -68 205t-188 74q-126 0 -205.5 -81t-79.5 -224z" />
    <glyph glyph-name="uni006F" unicode="o" horiz-adv-x="1221" 
d="M611 -23q-227 0 -366.5 158.5t-139.5 417.5q0 261 139 420t367 159t367 -159t139 -420q0 -259 -139.5 -417.5t-366.5 -158.5zM611 131q84 0 149 34t104.5 93t60 134t20.5 161t-20.5 161t-60 134.5t-105 94t-148.5 34.5t-148.5 -34.5t-105.5 -94t-60.5 -134.5t-20.5 -161
t20.5 -161t60.5 -134t105 -93t149 -34z" />
    <glyph glyph-name="uni0070" unicode="p" horiz-adv-x="1248" 
d="M157 -419v1536h166v-177h20q0 1 13 21.5t18 27t20.5 26.5t27.5 29.5t32 26t40.5 25t47 18.5t58 14t66.5 4q213 0 345 -157t132 -419q0 -264 -131.5 -421.5t-342.5 -157.5q-195 0 -299 152q-8 13 -22 35l-5 8h-14v-591h-172zM326 559q0 -194 84 -311t236 -117
q104 0 179 58t111 153t36 217q0 120 -35.5 213t-110 149t-180.5 56q-154 0 -237 -113t-83 -305z" />
    <glyph glyph-name="uni0071" unicode="q" horiz-adv-x="1248" 
d="M919 -419v591h-14q-45 -72 -79 -105q-95 -90 -247 -90q-211 0 -342.5 157.5t-131.5 421.5q0 262 132 419t345 157q35 0 66.5 -4t58 -14t47 -18.5t40.5 -25t32 -26t27.5 -29.5t20.5 -26.5t18 -27t13 -21.5h20v177h166v-1536h-172zM602 131q152 0 236 117t84 311
q0 192 -83 305t-237 113q-106 0 -180.5 -56t-110 -149t-35.5 -213q0 -122 36 -217t111 -153t179 -58z" />
    <glyph glyph-name="uni0072" unicode="r" horiz-adv-x="762" 
d="M157 0v1117h166v-169h12q31 84 110.5 135.5t179.5 51.5q31 0 91 -3v-175q-48 12 -105 12q-122 0 -202 -74.5t-80 -187.5v-707h-172z" />
    <glyph glyph-name="uni0073" unicode="s" horiz-adv-x="1070" 
d="M948 867l-154 -44q-62 160 -241 160q-103 0 -171 -47t-68 -119q0 -63 45 -100t147 -62l166 -41q297 -73 297 -303q0 -146 -121.5 -240t-315.5 -94q-173 0 -283.5 75t-140.5 216l163 40q47 -180 258 -180q117 0 189.5 50.5t72.5 124.5q0 119 -166 157l-186 43
q-296 69 -296 306q0 141 116 232t294 91q305 0 395 -265z" />
    <glyph glyph-name="uni0074" unicode="t" horiz-adv-x="744" 
d="M643 1117v-145h-239v-652q0 -99 40.5 -134t108.5 -35q30 0 75 9l35 -154q-54 -21 -128 -21q-56 0 -108.5 18t-96.5 52.5t-70.5 91t-26.5 126.5v699h-169v145h169v268h171v-268h239z" />
    <glyph glyph-name="uni0075" unicode="u" horiz-adv-x="1189" 
d="M861 457v660h172v-1117h-172v189h-12q-42 -91 -126.5 -147.5t-204.5 -56.5q-163 0 -262 107.5t-99 314.5v710h172v-698q0 -121 68 -194.5t176 -73.5q50 0 99.5 19t92.5 55t69.5 96.5t26.5 135.5z" />
    <glyph glyph-name="uni0076" unicode="v" horiz-adv-x="1140" 
d="M1071 1117l-414 -1117h-174l-413 1117h186l308 -890h12l308 890h187z" />
    <glyph glyph-name="uni0077" unicode="w" horiz-adv-x="1664" 
d="M410 0l-340 1117h180l242 -855h11l239 855h183l236 -852h11l242 852h180l-340 -1117h-169l-244 858h-18l-244 -858h-169z" />
    <glyph glyph-name="uni0078" unicode="x" horiz-adv-x="1105" 
d="M285 1117l268 -457l267 457h198l-361 -558l361 -559h-198l-267 433l-268 -433h-198l355 559l-355 558h198z" />
    <glyph glyph-name="uni0079" unicode="y" horiz-adv-x="1140" 
d="M268 -419q-87 0 -125 20l43 152q101 -26 160.5 3.5t104.5 150.5l32 87l-413 1123h186l308 -890h12l308 890h187l-475 -1280q-96 -256 -328 -256z" />
    <glyph glyph-name="uni007A" unicode="z" horiz-adv-x="1108" 
d="M125 0v131l634 814v12h-614v160h835v-137l-616 -808v-12h637v-160h-876z" />
    <glyph glyph-name="uni007B" unicode="{" horiz-adv-x="741" 
d="M672 -303q-209 0 -293.5 92t-84.5 298v233q0 120 -49 170.5t-169 50.5v175q120 0 169 50.5t49 170.5v232q0 206 84.5 298t293.5 92v-142q-123 0 -172 -58.5t-49 -189.5v-290q0 -99 -43.5 -158t-160.5 -82v-22q117 -23 160.5 -82t43.5 -157v-291q0 -131 48.5 -189
t172.5 -58v-143z" />
    <glyph glyph-name="uni007C" unicode="|" horiz-adv-x="669" 
d="M407 1969v-2449h-145v2449h145z" />
    <glyph glyph-name="uni007D" unicode="}" horiz-adv-x="741" 
d="M70 1559q209 0 293.5 -92t84.5 -298v-232q0 -120 49 -170.5t169 -50.5v-175q-120 0 -169 -50.5t-49 -170.5v-233q0 -206 -84.5 -298t-293.5 -92v143q124 0 172.5 58t48.5 189v291q0 98 43.5 157t160.5 82v22q-117 23 -160.5 82t-43.5 158v290q0 131 -49 189.5t-172 58.5
v142z" />
    <glyph glyph-name="uni007E" unicode="~" horiz-adv-x="1349" 
d="M169 442q-1 87 22.5 153.5t65 105t92 57.5t108.5 19q71 0 131.5 -30.5t144.5 -103.5q56 -49 87.5 -66.5t69.5 -17.5q64 0 99.5 46t34.5 131h157q1 -87 -22.5 -153.5t-65 -105t-92 -57.5t-108.5 -19q-71 0 -131.5 30.5t-144.5 103.5q-56 49 -88 67t-69 18q-63 0 -99 -43.5
t-35 -134.5h-157z" />
    <glyph glyph-name="uni00A0" unicode="&#xa0;" horiz-adv-x="576" 
 />
    <glyph glyph-name="uni00A1" unicode="&#xa1;" horiz-adv-x="570" 
d="M384 -378h-198l15 1070h168zM285 1123q54 0 92.5 -38.5t38.5 -92.5t-38.5 -92.5t-92.5 -38.5t-92.5 38.5t-38.5 92.5t38.5 92.5t92.5 38.5z" />
    <glyph glyph-name="uni00A2" unicode="&#xa2;" horiz-adv-x="1143" 
d="M541 0v172q-202 24 -319 180t-117 391q0 237 119 394t317 181v171h119v-169q157 -15 263.5 -109t126.5 -238h-171q-18 72 -75.5 125.5t-143.5 65.5v-839q83 12 140.5 62t78.5 129h171q-21 -142 -125 -237.5t-265 -109.5v-169h-119zM541 329v832q-122 -26 -193.5 -136
t-71.5 -276q0 -170 71 -282t194 -138z" />
    <glyph glyph-name="uni00A3" unicode="&#xa3;" horiz-adv-x="1291" 
d="M1120 0h-986v160h58q31 0 53.5 25.5t33 65.5t15 80t3.5 76l-6 172h-163v166h158l-10 294q-4 114 32 206.5t100 148.5t144 86t167 30q134 0 241 -64t154.5 -166.5t20.5 -211.5l-169 46q14 107 -59.5 171.5t-179.5 64.5q-115 0 -198.5 -80t-83.5 -231l11 -294h350v-166
h-344l6 -172q7 -166 -54 -247h706v-160z" />
    <glyph glyph-name="uni00A4" unicode="&#xa4;" horiz-adv-x="1480" 
d="M736 -20q-211 0 -372 136l-128 -131l-117 123l133 133q-109 163 -109 367q0 215 117 378l-141 146l117 122l141 -144q158 123 359 123q206 0 363 -126l143 147l119 -122l-146 -148q117 -167 117 -376q0 -204 -107 -364l136 -136l-119 -123l-129 134q-165 -139 -377 -139z
M736 140q117 0 216.5 63t157 171t57.5 234q0 194 -126 331t-305 137t-306 -137t-127 -331q0 -192 127 -330t306 -138z" />
    <glyph glyph-name="uni00A5" unicode="&#xa5;" horiz-adv-x="1122" 
d="M230 1489l325 -706h13l325 706h201l-373 -747h256v-131h-321l-4 -9v-148h325v-131h-325v-323h-181v323h-326v131h326v148l-4 9h-322v131h256l-372 747h201z" />
    <glyph glyph-name="uni00A6" unicode="&#xa6;" horiz-adv-x="544" 
d="M192 401h160v-680h-160v680zM352 1489v-677h-160v677h160z" />
    <glyph glyph-name="uni00A7" unicode="&#xa7;" horiz-adv-x="1128" 
d="M925 1137h-166q0 99 -49.5 159t-148.5 60q-91 0 -140 -47.5t-49 -109.5q0 -59 46.5 -111.5t110.5 -89.5l283 -166q212 -123 212 -320q0 -81 -60.5 -158.5t-143.5 -103.5v-3q102 -89 102 -235q0 -103 -53 -176t-134.5 -106t-181.5 -33q-175 0 -285.5 102t-110.5 274h169
q0 -105 63 -163t164 -58q86 0 144.5 41.5t58.5 118.5q0 32 -11 60t-23 46t-38.5 38.5t-40 29t-44.5 26.5l-282 163q-212 123 -212 323q0 81 58 160t145 105v6q-101 101 -101 230q0 135 99.5 223t254.5 88q166 0 265 -103.5t99 -269.5zM864 512q0 109 -137 189l-285 166
q-24 16 -54.5 6.5t-58 -31t-46 -61t-18.5 -83.5q0 -64 37 -108.5t102 -83.5l271 -157q31 -18 75.5 -1t79 62.5t34.5 101.5z" />
    <glyph glyph-name="uni00A8" unicode="&#xa8;" horiz-adv-x="1210" 
d="M396 1303q-46 0 -81.5 35.5t-35.5 81.5q0 49 35 82.5t82 33.5q50 0 83 -33t33 -83q0 -47 -33.5 -82t-82.5 -35zM815 1303q-46 0 -81.5 35.5t-35.5 81.5q0 49 35 82.5t82 33.5q50 0 83 -33t33 -83q0 -47 -33.5 -82t-82.5 -35z" />
    <glyph glyph-name="uni00A9" unicode="&#xa9;" horiz-adv-x="1873" 
d="M937 -23q-208 0 -385 103t-280 280t-103 385q0 156 61 298.5t164 245t245 163.5t298 61q209 0 385.5 -103t279.5 -279.5t103 -385.5t-102.5 -385.5t-279.5 -279.5t-386 -103zM937 145q163 0 301.5 80.5t218 218.5t79.5 300q0 163 -80.5 301.5t-218 218.5t-300.5 80
q-121 0 -232 -47.5t-191.5 -128t-128.5 -191.5t-48 -233q0 -121 47.5 -232t128 -191.5t191.5 -128t233 -47.5zM512 745q0 179 126.5 305.5t305.5 126.5q155 0 270.5 -97t136.5 -242h-176q-15 74 -80.5 122t-150.5 48q-109 0 -186 -77t-77 -186t77 -186.5t186 -77.5
q83 0 142.5 47.5t74.5 123.5h176q-21 -147 -130.5 -243t-262.5 -96q-179 0 -305.5 126.5t-126.5 305.5z" />
    <glyph glyph-name="uni00AA" unicode="&#xaa;" horiz-adv-x="919" 
d="M589 775q-77 -83 -202 -83q-118 0 -184 61.5t-66 165.5q0 113 86.5 173t256.5 60h102v49q0 128 -117 128q-66 0 -102.5 -25t-36.5 -73l-172 14q0 102 85.5 167.5t225.5 65.5q134 0 212.5 -71.5t78.5 -205.5v-314q0 -102 27 -180h-178q-9 28 -16 68zM582 1036h-102
q-82 0 -124 -32t-42 -79q0 -87 117 -87q39 0 81 18t70 44v136z" />
    <glyph glyph-name="uni00AB" unicode="&#xab;" horiz-adv-x="1105" 
d="M582 160h-151l-294 436v21l294 436h151l-277 -446zM954 160h-151l-294 436v21l294 436h151l-276 -446z" />
    <glyph glyph-name="uni00AC" unicode="&#xac;" horiz-adv-x="1105" 
d="M972 806v-431h-201v259h-634v172h835z" />
    <glyph glyph-name="uni00AD" unicode="&#xad;" horiz-adv-x="942" 
d="M797 719v-160h-652v160h652z" />
    <glyph glyph-name="uni00AE" unicode="&#xae;" horiz-adv-x="1373" 
d="M687 346q-158 0 -292 78t-212 212t-78 292t78 292t212 212t292 78q118 0 225.5 -46t185.5 -124t124 -186t46 -226t-46 -226t-124 -186t-185.5 -124t-225.5 -46zM687 486q183 0 312.5 129.5t129.5 312.5t-129.5 312.5t-312.5 129.5t-313 -129.5t-130 -312.5t130 -312.5
t313 -129.5zM483 666v537h272q57 0 110.5 -46t53.5 -126q0 -52 -25 -92.5t-63 -64.5l110 -208h-129l-94 182h-117v-182h-118zM601 935h109q28 0 54 26t26 70t-25 64.5t-52 20.5h-112v-181z" />
    <glyph glyph-name="uni00AF" unicode="&#xaf;" horiz-adv-x="919" 
d="M800 1489v-145h-681v145h681z" />
    <glyph glyph-name="uni00B0" unicode="&#xb0;" horiz-adv-x="930" 
d="M465 832q-139 0 -236.5 98t-97.5 237t97.5 236.5t236.5 97.5t237 -97.5t98 -236.5t-98 -237t-237 -98zM465 977q79 0 134.5 55.5t55.5 134.5t-55.5 134t-134.5 55t-134 -55t-55 -134t55 -134.5t134 -55.5z" />
    <glyph glyph-name="uni00B1" unicode="&#xb1;" horiz-adv-x="1349" 
d="M207 657v163h386v297h163v-297h387v-163h-387v-296h-163v296h-386zM207 70v163h936v-163h-936z" />
    <glyph glyph-name="uni00B2" unicode="&#xb2;" horiz-adv-x="861" 
d="M102 745v113l340 303q85 75 119.5 121.5t34.5 99.5q0 64 -49 103t-125 39q-79 0 -127 -41.5t-48 -109.5h-151q0 124 92 200t237 76q143 0 233 -75t90 -189q0 -85 -51 -157t-179 -184l-189 -165v-6h445v-128h-672z" />
    <glyph glyph-name="uni00B3" unicode="&#xb3;" horiz-adv-x="881" 
d="M439 733q-151 0 -250.5 73.5t-101.5 188.5h160q2 -59 56 -95t136 -36q85 0 140 39.5t55 100.5t-59 100t-156 39h-73v117h73q82 0 135.5 36.5t53.5 96.5q0 57 -46 94t-120 37q-76 0 -128.5 -36.5t-54.5 -96.5h-151q2 114 97.5 186t236.5 72t230.5 -69.5t89.5 -177.5
q0 -76 -52 -127.5t-134 -64.5v-6q105 -15 163 -72t58 -140q0 -112 -101 -185.5t-257 -73.5z" />
    <glyph glyph-name="uni00B4" unicode="&#xb4;" horiz-adv-x="1018" 
d="M407 1268l178 338h200l-226 -338h-152z" />
    <glyph glyph-name="uni00B5" unicode="&#xb5;" horiz-adv-x="1274" 
d="M157 -419v1536h172v-660q0 -137 84.5 -221.5t223.5 -84.5t223.5 85t84.5 221v660h172v-1117h-172v166h-8q-44 -87 -124.5 -134t-175.5 -47t-175 47t-125 134h-8v-585h-172z" />
    <glyph glyph-name="uni00B6" unicode="&#xb6;" horiz-adv-x="1227" 
d="M867 0v1329h-180v-776h-85q-232 0 -361.5 129.5t-129.5 338.5q0 207 130 337.5t361 130.5h445v-1489h-180z" />
    <glyph glyph-name="uni00B7" unicode="&#xb7;" horiz-adv-x="564" 
d="M282 521q-54 0 -92.5 38.5t-38.5 92.5t38.5 92.5t92.5 38.5t92.5 -38.5t38.5 -92.5t-38.5 -92.5t-92.5 -38.5z" />
    <glyph glyph-name="uni00B8" unicode="&#xb8;" horiz-adv-x="546" 
d="M204 6h142l-11 -58q65 -10 108 -52t43 -120q0 -96 -79.5 -154t-226.5 -58l-5 113q157 0 157 93q0 48 -34.5 67t-122.5 26z" />
    <glyph glyph-name="uni00B9" unicode="&#xb9;" horiz-adv-x="641" 
d="M319 745v734h-8l-230 -152v154l238 157h151v-893h-151z" />
    <glyph glyph-name="uni00BA" unicode="&#xba;" horiz-adv-x="919" 
d="M113 1044v79q0 157 95 256t252 99q159 0 252.5 -98.5t93.5 -256.5v-79q0 -157 -93 -254.5t-250 -97.5q-160 0 -255 97.5t-95 254.5zM288 1123v-79q0 -93 45.5 -149.5t129.5 -56.5q82 0 125 56.5t43 149.5v79q0 91 -43.5 148.5t-127.5 57.5q-82 0 -127 -57.5t-45 -148.5z
" />
    <glyph glyph-name="uni00BB" unicode="&#xbb;" horiz-adv-x="1105" 
d="M509 160l276 447l-276 446h151l294 -436v-21l-294 -436h-151zM137 160l276 447l-276 446h151l294 -436v-21l-294 -436h-151z" />
    <glyph glyph-name="uni00BC" unicode="&#xbc;" horiz-adv-x="1809" 
d="M1068 143v119l381 529h189v-526h110v-122h-110v-143h-146v143h-424zM279 0l1024 1489h166l-1024 -1489h-166zM272 698v633h-7l-195 -130v155l202 133h151v-791h-151zM1495 265v360h-6l-264 -357v-3h270z" />
    <glyph glyph-name="uni00BD" unicode="&#xbd;" horiz-adv-x="1896" 
d="M279 0l1024 1489h166l-1024 -1489h-166zM1201 0v111l312 261q74 63 104 103t30 84q0 56 -44 90.5t-111 34.5q-66 0 -110 -36.5t-44 -94.5h-145q0 111 83.5 180.5t218.5 69.5q133 0 215 -69t82 -173q0 -76 -46 -140.5t-163 -161.5l-160 -131v-6h398v-122h-620zM272 698
v633h-7l-195 -130v155l202 133h151v-791h-151z" />
    <glyph glyph-name="uni00BE" unicode="&#xbe;" horiz-adv-x="1943" 
d="M1201 143v119l382 529h189v-526h110v-122h-110v-143h-146v143h-425zM399 687q-140 0 -231.5 68t-91.5 173h154q0 -50 48.5 -83t120.5 -33q71 0 118 34t47 85q0 52 -51.5 84t-134.5 32h-64v108h64q73 0 121 31.5t48 81.5q0 49 -41.5 81.5t-106.5 32.5q-66 0 -112 -33.5
t-46 -83.5h-148q2 103 88.5 169.5t217.5 66.5t213.5 -62.5t82.5 -158.5q0 -67 -47.5 -112.5t-126.5 -56.5v-6q97 -13 150 -63t53 -123q0 -101 -91 -166.5t-234 -65.5zM413 0l1024 1489h166l-1024 -1489h-166zM1629 265v360h-6l-264 -357v-3h270z" />
    <glyph glyph-name="uni00BF" unicode="&#xbf;" horiz-adv-x="1038" 
d="M657 695v-8q-1 -101 -15.5 -173.5t-47 -123t-69.5 -82.5t-97 -69q-152 -93 -152 -251q0 -105 71 -168.5t177 -63.5q99 0 170.5 60t79.5 181h183q-8 -181 -129.5 -287t-303.5 -106q-190 0 -306 110.5t-116 282.5q0 227 203 351q98 61 137 133.5t41 205.5v8h174zM564 1126
q54 0 92.5 -38.5t38.5 -92.5t-38.5 -92.5t-92.5 -38.5t-92.5 38.5t-38.5 92.5t38.5 92.5t92.5 38.5z" />
    <glyph glyph-name="uni00C0" unicode="&#xc0;" horiz-adv-x="1384" 
d="M241 0h-189l547 1489h186l547 -1489h-189l-150 422h-602zM448 582h489l-239 672h-11zM620 1641l-227 337h200l178 -337h-151z" />
    <glyph glyph-name="uni00C1" unicode="&#xc1;" horiz-adv-x="1384" 
d="M241 0h-189l547 1489h186l547 -1489h-189l-150 422h-602zM448 582h489l-239 672h-11zM614 1641l177 337h201l-227 -337h-151z" />
    <glyph glyph-name="uni00C2" unicode="&#xc2;" horiz-adv-x="1384" 
d="M241 0h-189l547 1489h186l547 -1489h-189l-150 422h-602zM448 582h489l-239 672h-11zM844 1623l-152 204l-151 -204h-163v12l236 302h157l236 -302v-12h-163z" />
    <glyph glyph-name="uni00C3" unicode="&#xc3;" horiz-adv-x="1384" 
d="M241 0h-189l547 1489h186l547 -1489h-189l-150 422h-602zM448 582h489l-239 672h-11zM468 1638l-133 6q0 110 63 181.5t158 71.5q56 0 134 -46.5t130 -46.5q41 0 70 32t29 78l131 -11q0 -111 -63 -179.5t-158 -68.5q-45 0 -82.5 14.5t-59 32t-54 32t-69.5 14.5
q-41 0 -68.5 -32t-27.5 -78z" />
    <glyph glyph-name="uni00C4" unicode="&#xc4;" horiz-adv-x="1384" 
d="M241 0h-189l547 1489h186l547 -1489h-189l-150 422h-602zM448 582h489l-239 672h-11zM483 1676q-46 0 -81 35t-35 81q0 49 34.5 82.5t81.5 33.5q50 0 83 -33t33 -83q0 -47 -33.5 -81.5t-82.5 -34.5zM902 1676q-46 0 -81.5 35t-35.5 81q0 49 35 82.5t82 33.5q50 0 83 -33
t33 -83q0 -47 -33.5 -81.5t-82.5 -34.5z" />
    <glyph glyph-name="uni00C5" unicode="&#xc5;" horiz-adv-x="1384" 
d="M241 0h-189l547 1489h186l547 -1489h-189l-150 422h-602zM448 582h489l-239 672h-11zM692 1591q-87 0 -149 62t-62 149t62 149t149 62t149 -62t62 -149t-62 -149t-149 -62zM692 1696q45 0 75 30.5t30 75.5t-30 75.5t-75 30.5t-74.5 -30.5t-29.5 -75.5t29.5 -75.5
t74.5 -30.5z" />
    <glyph glyph-name="uni00C6" unicode="&#xc6;" horiz-adv-x="2027" 
d="M52 0l722 1489h1108v-160h-718v-503h672v-160h-672v-506h730v-160h-911v422h-534l-199 -422h-198zM524 582h459v747h-107z" />
    <glyph glyph-name="uni00C7" unicode="&#xc7;" horiz-adv-x="1489" 
d="M1379 1024h-180q-32 150 -148.5 233.5t-270.5 83.5q-211 0 -347 -157.5t-136 -438.5t136 -439t347 -158q154 0 270.5 83.5t148.5 233.5h180q-38 -208 -183 -336t-352 -146l-9 -47q65 -10 108 -52t43 -120q0 -96 -79 -154t-226 -58l-6 113q72 0 114.5 23t42.5 71t-34.5 67
t-122.5 26l27 132q-260 28 -420 232.5t-160 528.5q0 174 49.5 318t136.5 241.5t208.5 151.5t263.5 54q229 0 393.5 -130.5t205.5 -355.5z" />
    <glyph glyph-name="uni00C8" unicode="&#xc8;" horiz-adv-x="1224" 
d="M180 0v1489h899v-160h-718v-503h672v-160h-672v-506h730v-160h-911zM556 1641l-227 337h200l178 -337h-151z" />
    <glyph glyph-name="uni00C9" unicode="&#xc9;" horiz-adv-x="1224" 
d="M180 0v1489h899v-160h-718v-503h672v-160h-672v-506h730v-160h-911zM550 1641l177 337h201l-227 -337h-151z" />
    <glyph glyph-name="uni00CA" unicode="&#xca;" horiz-adv-x="1224" 
d="M180 0v1489h899v-160h-718v-503h672v-160h-672v-506h730v-160h-911zM780 1623l-152 204l-151 -204h-163v12l236 302h157l236 -302v-12h-163z" />
    <glyph glyph-name="uni00CB" unicode="&#xcb;" horiz-adv-x="1224" 
d="M180 0v1489h899v-160h-718v-503h672v-160h-672v-506h730v-160h-911zM419 1676q-46 0 -81 35t-35 81q0 49 34.5 82.5t81.5 33.5q50 0 83 -33t33 -83q0 -47 -33.5 -81.5t-82.5 -34.5zM838 1676q-46 0 -81.5 35t-35.5 81q0 49 35 82.5t82 33.5q50 0 83 -33t33 -83
q0 -47 -33.5 -81.5t-82.5 -34.5z" />
    <glyph glyph-name="uni00CC" unicode="&#xcc;" horiz-adv-x="541" 
d="M361 1489v-1489h-181v1489h181zM198 1641l-227 337h201l177 -337h-151z" />
    <glyph glyph-name="uni00CD" unicode="&#xcd;" horiz-adv-x="541" 
d="M361 1489v-1489h-181v1489h181zM192 1641l177 337h201l-227 -337h-151z" />
    <glyph glyph-name="uni00CE" unicode="&#xce;" horiz-adv-x="541" 
d="M361 1489v-1489h-181v1489h181zM422 1623l-151 204l-152 -204h-163v12l236 302h157l236 -302v-12h-163z" />
    <glyph glyph-name="uni00CF" unicode="&#xcf;" horiz-adv-x="541" 
d="M361 1489v-1489h-181v1489h181zM61 1676q-46 0 -81 35t-35 81q0 49 34.5 82.5t81.5 33.5q50 0 83 -33t33 -83q0 -47 -33.5 -81.5t-82.5 -34.5zM480 1676q-46 0 -81 35t-35 81q0 49 34.5 82.5t81.5 33.5q50 0 83 -33t33 -83q0 -47 -33.5 -81.5t-82.5 -34.5z" />
    <glyph glyph-name="uni00D0" unicode="&#xd0;" horiz-adv-x="1472" 
d="M640 0h-460v701h-229v134h229v654h480q324 0 507 -196.5t183 -544.5q0 -351 -186 -549.5t-524 -198.5zM361 160h267q271 0 409 154.5t138 433.5q0 275 -134 428t-392 153h-288v-494h230v-134h-230v-541z" />
    <glyph glyph-name="uni00D1" unicode="&#xd1;" horiz-adv-x="1541" 
d="M1361 1489v-1489h-174l-812 1169h-14v-1169h-181v1489h175l814 -1172h15v1172h177zM547 1623l-134 6q0 110 63 181.5t158 71.5q56 0 134.5 -46.5t130.5 -46.5q41 0 70 32.5t29 78.5l131 -12q0 -111 -62.5 -179t-158.5 -68q-45 0 -82.5 14.5t-59 32t-54 32t-69.5 14.5
q-41 0 -68.5 -32.5t-27.5 -78.5z" />
    <glyph glyph-name="uni00D2" unicode="&#xd2;" horiz-adv-x="1559" 
d="M1437 745q0 -174 -49 -318t-136.5 -241.5t-208.5 -151.5t-263 -54t-263.5 54t-208.5 151.5t-136.5 241.5t-49.5 318t49.5 318t136.5 241.5t208.5 151.5t263.5 54t263 -54t208.5 -151.5t136.5 -241.5t49 -318zM1263 745q0 281 -136 438.5t-347 157.5t-347 -157.5
t-136 -438.5t136 -439t347 -158t347 158t136 439zM707 1641l-227 337h201l177 -337h-151z" />
    <glyph glyph-name="uni00D3" unicode="&#xd3;" horiz-adv-x="1559" 
d="M1437 745q0 -174 -49 -318t-136.5 -241.5t-208.5 -151.5t-263 -54t-263.5 54t-208.5 151.5t-136.5 241.5t-49.5 318t49.5 318t136.5 241.5t208.5 151.5t263.5 54t263 -54t208.5 -151.5t136.5 -241.5t49 -318zM1263 745q0 281 -136 438.5t-347 157.5t-347 -157.5
t-136 -438.5t136 -439t347 -158t347 158t136 439zM701 1641l178 337h200l-227 -337h-151z" />
    <glyph glyph-name="uni00D4" unicode="&#xd4;" horiz-adv-x="1559" 
d="M1437 745q0 -174 -49 -318t-136.5 -241.5t-208.5 -151.5t-263 -54t-263.5 54t-208.5 151.5t-136.5 241.5t-49.5 318t49.5 318t136.5 241.5t208.5 151.5t263.5 54t263 -54t208.5 -151.5t136.5 -241.5t49 -318zM1263 745q0 281 -136 438.5t-347 157.5t-347 -157.5
t-136 -438.5t136 -439t347 -158t347 158t136 439zM931 1623l-151 204l-152 -204h-163v12l236 302h157l236 -302v-12h-163z" />
    <glyph glyph-name="uni00D5" unicode="&#xd5;" horiz-adv-x="1559" 
d="M1437 745q0 -174 -49 -318t-136.5 -241.5t-208.5 -151.5t-263 -54t-263.5 54t-208.5 151.5t-136.5 241.5t-49.5 318t49.5 318t136.5 241.5t208.5 151.5t263.5 54t263 -54t208.5 -151.5t136.5 -241.5t49 -318zM1263 745q0 281 -136 438.5t-347 157.5t-347 -157.5
t-136 -438.5t136 -439t347 -158t347 158t136 439zM556 1638l-134 6q0 110 63 181.5t158 71.5q56 0 134.5 -46.5t130.5 -46.5q41 0 70 32t29 78l130 -11q0 -111 -63 -179.5t-158 -68.5q-45 0 -82 14.5t-58.5 32t-54 32t-69.5 14.5q-41 0 -68.5 -32t-27.5 -78z" />
    <glyph glyph-name="uni00D6" unicode="&#xd6;" horiz-adv-x="1559" 
d="M1437 745q0 -174 -49 -318t-136.5 -241.5t-208.5 -151.5t-263 -54t-263.5 54t-208.5 151.5t-136.5 241.5t-49.5 318t49.5 318t136.5 241.5t208.5 151.5t263.5 54t263 -54t208.5 -151.5t136.5 -241.5t49 -318zM1263 745q0 281 -136 438.5t-347 157.5t-347 -157.5
t-136 -438.5t136 -439t347 -158t347 158t136 439zM570 1676q-46 0 -81 35t-35 81q0 49 34.5 82.5t81.5 33.5q50 0 83.5 -33t33.5 -83q0 -47 -34 -81.5t-83 -34.5zM989 1676q-46 0 -81 35t-35 81q0 49 34.5 82.5t81.5 33.5q50 0 83 -33t33 -83q0 -47 -33.5 -81.5t-82.5 -34.5
z" />
    <glyph glyph-name="uni00D7" unicode="&#xd7;" horiz-adv-x="1349" 
d="M1030 116l-355 355l-355 -355l-111 111l355 355l-355 355l111 110l355 -355l355 355l110 -110l-355 -355l355 -355z" />
    <glyph glyph-name="uni00D8" unicode="&#xd8;" horiz-adv-x="1559" 
d="M314 -61l-110 76l110 163q-192 211 -192 567q0 174 49.5 318t136.5 241.5t208.5 151.5t263.5 54q204 0 361 -108l98 146l111 -76l-107 -159q194 -212 194 -568q0 -174 -49 -318t-136.5 -241.5t-208.5 -151.5t-263 -54q-207 0 -364 109zM1263 745q0 260 -121 419
l-630 -932q116 -84 268 -84q211 0 347 158t136 439zM415 328l629 932q-114 81 -264 81q-211 0 -347 -157.5t-136 -438.5q0 -258 118 -417z" />
    <glyph glyph-name="uni00D9" unicode="&#xd9;" horiz-adv-x="1518" 
d="M1158 1489h180v-986q0 -232 -159.5 -380.5t-419.5 -148.5t-419.5 148.5t-159.5 380.5v986h181v-971q0 -167 107 -271t291 -104t291.5 104.5t107.5 270.5v971zM687 1641l-227 337h200l178 -337h-151z" />
    <glyph glyph-name="uni00DA" unicode="&#xda;" horiz-adv-x="1518" 
d="M1158 1489h180v-986q0 -232 -159.5 -380.5t-419.5 -148.5t-419.5 148.5t-159.5 380.5v986h181v-971q0 -167 107 -271t291 -104t291.5 104.5t107.5 270.5v971zM681 1641l177 337h201l-227 -337h-151z" />
    <glyph glyph-name="uni00DB" unicode="&#xdb;" horiz-adv-x="1518" 
d="M1158 1489h180v-986q0 -232 -159.5 -380.5t-419.5 -148.5t-419.5 148.5t-159.5 380.5v986h181v-971q0 -167 107 -271t291 -104t291.5 104.5t107.5 270.5v971zM911 1623l-152 204l-151 -204h-163v12l236 302h157l235 -302v-12h-162z" />
    <glyph glyph-name="uni00DC" unicode="&#xdc;" horiz-adv-x="1518" 
d="M1158 1489h180v-986q0 -232 -159.5 -380.5t-419.5 -148.5t-419.5 148.5t-159.5 380.5v986h181v-971q0 -167 107 -271t291 -104t291.5 104.5t107.5 270.5v971zM550 1676q-46 0 -81.5 35t-35.5 81q0 49 35 82.5t82 33.5q50 0 83 -33t33 -83q0 -47 -33.5 -81.5t-82.5 -34.5z
M969 1676q-46 0 -81.5 35t-35.5 81q0 49 35 82.5t82 33.5q50 0 83 -33t33 -83q0 -47 -33.5 -81.5t-82.5 -34.5z" />
    <glyph glyph-name="uni00DD" unicode="&#xdd;" horiz-adv-x="1361" 
d="M52 1489h207l413 -695h17l414 695h206l-538 -875v-614h-180v614zM602 1641l178 337h200l-227 -337h-151z" />
    <glyph glyph-name="uni00DE" unicode="&#xde;" horiz-adv-x="1291" 
d="M169 1489h180v-308h288q230 0 361 -122t131 -306t-131 -305.5t-361 -121.5h-288v-326h-180v1489zM349 486h288q155 0 237.5 69t82.5 196q0 128 -83 199t-237 71h-288v-535z" />
    <glyph glyph-name="uni00DF" unicode="&#xdf;" horiz-adv-x="1248" 
d="M180 0v1108q0 184 119.5 293t311.5 109q189 0 311 -104.5t122 -279.5q0 -124 -63.5 -212t-171.5 -126v-14q144 -14 233.5 -112.5t89.5 -251.5q0 -179 -120 -294.5t-314 -115.5h-163v160h166q117 0 188 69.5t71 180.5q0 117 -78.5 191t-209.5 74h-131v163h93
q106 0 172.5 78t66.5 184q0 108 -71 179t-188 71q-114 0 -188 -67.5t-74 -174.5v-1108h-172z" />
    <glyph glyph-name="uni00E0" unicode="&#xe0;" horiz-adv-x="1154" 
d="M486 -26q-165 0 -273 92t-108 251q0 53 13.5 97t35.5 75.5t57 56t69 40t82 28t86 19t90 13.5q28 4 63 8t56 6t46 5.5t39.5 6.5t30.5 8t24 10.5t15.5 14t10.5 19t3 24.5v5q0 109 -59 168t-176 59q-113 0 -185.5 -48.5t-105.5 -119.5l-163 58q31 73 82 126.5t112.5 81.5
t123.5 41t130 13q35 0 68 -3t76 -13.5t79 -27.5t72 -47.5t61.5 -70.5t41 -100.5t15.5 -133.5v-736h-172v151h-9q-15 -30 -40 -59t-64.5 -56.5t-98.5 -44.5t-128 -17zM512 128q146 0 230 82t84 194v157q-5 -6 -15 -11t-26 -10t-32.5 -9t-39 -8t-40 -7t-42 -6.5t-38.5 -5
t-36 -4t-28 -3.5q-55 -7 -97 -18.5t-79 -32.5t-57 -56t-20 -82q0 -87 65 -133.5t171 -46.5zM524 1268l-227 338h200l178 -338h-151z" />
    <glyph glyph-name="uni00E1" unicode="&#xe1;" horiz-adv-x="1154" 
d="M486 -26q-165 0 -273 92t-108 251q0 53 13.5 97t35.5 75.5t57 56t69 40t82 28t86 19t90 13.5q28 4 63 8t56 6t46 5.5t39.5 6.5t30.5 8t24 10.5t15.5 14t10.5 19t3 24.5v5q0 109 -59 168t-176 59q-113 0 -185.5 -48.5t-105.5 -119.5l-163 58q31 73 82 126.5t112.5 81.5
t123.5 41t130 13q35 0 68 -3t76 -13.5t79 -27.5t72 -47.5t61.5 -70.5t41 -100.5t15.5 -133.5v-736h-172v151h-9q-15 -30 -40 -59t-64.5 -56.5t-98.5 -44.5t-128 -17zM512 128q146 0 230 82t84 194v157q-5 -6 -15 -11t-26 -10t-32.5 -9t-39 -8t-40 -7t-42 -6.5t-38.5 -5
t-36 -4t-28 -3.5q-55 -7 -97 -18.5t-79 -32.5t-57 -56t-20 -82q0 -87 65 -133.5t171 -46.5zM518 1268l177 338h201l-227 -338h-151z" />
    <glyph glyph-name="uni00E2" unicode="&#xe2;" horiz-adv-x="1154" 
d="M486 -26q-165 0 -273 92t-108 251q0 53 13.5 97t35.5 75.5t57 56t69 40t82 28t86 19t90 13.5q28 4 63 8t56 6t46 5.5t39.5 6.5t30.5 8t24 10.5t15.5 14t10.5 19t3 24.5v5q0 109 -59 168t-176 59q-113 0 -185.5 -48.5t-105.5 -119.5l-163 58q31 73 82 126.5t112.5 81.5
t123.5 41t130 13q35 0 68 -3t76 -13.5t79 -27.5t72 -47.5t61.5 -70.5t41 -100.5t15.5 -133.5v-736h-172v151h-9q-15 -30 -40 -59t-64.5 -56.5t-98.5 -44.5t-128 -17zM512 128q146 0 230 82t84 194v157q-5 -6 -15 -11t-26 -10t-32.5 -9t-39 -8t-40 -7t-42 -6.5t-38.5 -5
t-36 -4t-28 -3.5q-55 -7 -97 -18.5t-79 -32.5t-57 -56t-20 -82q0 -87 65 -133.5t171 -46.5zM748 1251l-152 204l-151 -204h-163v12l236 302h157l236 -302v-12h-163z" />
    <glyph glyph-name="uni00E3" unicode="&#xe3;" horiz-adv-x="1154" 
d="M486 -26q-165 0 -273 92t-108 251q0 53 13.5 97t35.5 75.5t57 56t69 40t82 28t86 19t90 13.5q28 4 63 8t56 6t46 5.5t39.5 6.5t30.5 8t24 10.5t15.5 14t10.5 19t3 24.5v5q0 109 -59 168t-176 59q-113 0 -185.5 -48.5t-105.5 -119.5l-163 58q31 73 82 126.5t112.5 81.5
t123.5 41t130 13q35 0 68 -3t76 -13.5t79 -27.5t72 -47.5t61.5 -70.5t41 -100.5t15.5 -133.5v-736h-172v151h-9q-15 -30 -40 -59t-64.5 -56.5t-98.5 -44.5t-128 -17zM512 128q146 0 230 82t84 194v157q-5 -6 -15 -11t-26 -10t-32.5 -9t-39 -8t-40 -7t-42 -6.5t-38.5 -5
t-36 -4t-28 -3.5q-55 -7 -97 -18.5t-79 -32.5t-57 -56t-20 -82q0 -87 65 -133.5t171 -46.5zM372 1251l-133 6q0 110 63 181.5t158 71.5q56 0 134 -46.5t130 -46.5q41 0 70 32t29 78l131 -11q0 -111 -63 -179.5t-158 -68.5q-45 0 -82.5 14.5t-59 32t-54 32t-69.5 14.5
q-41 0 -68.5 -32t-27.5 -78z" />
    <glyph glyph-name="uni00E4" unicode="&#xe4;" horiz-adv-x="1154" 
d="M486 -26q-165 0 -273 92t-108 251q0 53 13.5 97t35.5 75.5t57 56t69 40t82 28t86 19t90 13.5q28 4 63 8t56 6t46 5.5t39.5 6.5t30.5 8t24 10.5t15.5 14t10.5 19t3 24.5v5q0 109 -59 168t-176 59q-113 0 -185.5 -48.5t-105.5 -119.5l-163 58q31 73 82 126.5t112.5 81.5
t123.5 41t130 13q35 0 68 -3t76 -13.5t79 -27.5t72 -47.5t61.5 -70.5t41 -100.5t15.5 -133.5v-736h-172v151h-9q-15 -30 -40 -59t-64.5 -56.5t-98.5 -44.5t-128 -17zM512 128q146 0 230 82t84 194v157q-5 -6 -15 -11t-26 -10t-32.5 -9t-39 -8t-40 -7t-42 -6.5t-38.5 -5
t-36 -4t-28 -3.5q-55 -7 -97 -18.5t-79 -32.5t-57 -56t-20 -82q0 -87 65 -133.5t171 -46.5zM387 1303q-46 0 -81 35.5t-35 81.5q0 49 34.5 82.5t81.5 33.5q50 0 83 -33t33 -83q0 -47 -33.5 -82t-82.5 -35zM806 1303q-46 0 -81.5 35.5t-35.5 81.5q0 49 35 82.5t82 33.5
q50 0 83 -33t33 -83q0 -47 -33.5 -82t-82.5 -35z" />
    <glyph glyph-name="uni00E5" unicode="&#xe5;" horiz-adv-x="1154" 
d="M486 -26q-165 0 -273 92t-108 251q0 53 13.5 97t35.5 75.5t57 56t69 40t82 28t86 19t90 13.5q28 4 63 8t56 6t46 5.5t39.5 6.5t30.5 8t24 10.5t15.5 14t10.5 19t3 24.5v5q0 109 -59 168t-176 59q-113 0 -185.5 -48.5t-105.5 -119.5l-163 58q31 73 82 126.5t112.5 81.5
t123.5 41t130 13q35 0 68 -3t76 -13.5t79 -27.5t72 -47.5t61.5 -70.5t41 -100.5t15.5 -133.5v-736h-172v151h-9q-15 -30 -40 -59t-64.5 -56.5t-98.5 -44.5t-128 -17zM596 1242q-111 0 -187.5 71t-76.5 176q0 106 77 181t187 75t186 -75t76 -181q0 -105 -75.5 -176
t-186.5 -71zM512 128q146 0 230 82t84 194v157q-5 -6 -15 -11t-26 -10t-32.5 -9t-39 -8t-40 -7t-42 -6.5t-38.5 -5t-36 -4t-28 -3.5q-55 -7 -97 -18.5t-79 -32.5t-57 -56t-20 -82q0 -87 65 -133.5t171 -46.5zM596 1353q59 0 99.5 41t40.5 95q0 56 -40.5 99.5t-99.5 43.5
t-99 -43t-40 -100q0 -54 40 -95t99 -41z" />
    <glyph glyph-name="uni00E6" unicode="&#xe6;" horiz-adv-x="1893" 
d="M1327 -23q-148 0 -259.5 61t-165.5 166h-6q-34 -96 -150.5 -163t-259.5 -67q-165 0 -273 92t-108 251q0 53 13.5 97t35.5 75.5t57 56.5t69 40.5t82 28t86.5 19t89.5 12.5q27 3 63 7.5t56 6.5t46 6t39.5 7t30 8t24.5 10.5t15.5 14t10.5 18.5t3 24v5q0 109 -59.5 168
t-175.5 59q-112 0 -185 -48.5t-106 -119.5l-163 58q31 73 82 126.5t112.5 81.5t123.5 41t130 13q47 0 91.5 -6.5t98 -24t99.5 -55.5t76 -93q125 179 359 179q73 0 139.5 -17.5t129.5 -59.5t109 -105t74 -159.5t28 -217.5v-73h-811q6 -176 101 -272.5t248 -96.5
q103 0 174.5 44t104.5 130l166 -46q-40 -129 -158.5 -205.5t-286.5 -76.5zM512 128q146 0 230 82t84 194v157q-5 -6 -15 -11t-26 -10t-32.5 -9t-39 -8t-40 -7t-42 -6.5t-38.5 -5t-36 -4t-28 -3.5q-55 -7 -97 -18.5t-79 -32.5t-57 -56t-20 -82q0 -87 65 -133.5t171 -46.5z
M978 649h637q0 144 -84 236t-222 92q-141 0 -231.5 -96t-99.5 -232z" />
    <glyph glyph-name="uni00E7" unicode="&#xe7;" horiz-adv-x="1143" 
d="M667 -20l-7 -32q65 -10 108.5 -52t43.5 -120q0 -96 -79.5 -154t-226.5 -58l-6 113q157 0 157 93q0 48 -34.5 67t-122.5 26l25 120q-195 30 -307.5 185t-112.5 385q0 257 138.5 418t364.5 161q177 0 298.5 -96t143.5 -253h-171q-21 83 -91 138.5t-177 55.5
q-151 0 -243 -114.5t-92 -303.5q0 -195 91 -311.5t244 -116.5q101 0 172.5 52t95.5 143h171q-21 -141 -122.5 -236t-260.5 -110z" />
    <glyph glyph-name="uni00E8" unicode="&#xe8;" horiz-adv-x="1192" 
d="M625 -23q-240 0 -380 156.5t-140 416.5q0 259 138.5 420.5t364.5 161.5q73 0 139.5 -17.5t129.5 -59.5t109 -105t74 -159.5t28 -217.5v-73h-811q6 -176 100 -272.5t248 -96.5q103 0 175 44t105 130l166 -46q-40 -128 -159 -205t-287 -77zM277 649h636q0 144 -83.5 236
t-221.5 92q-141 0 -231.5 -95.5t-99.5 -232.5zM527 1268l-227 338h200l178 -338h-151z" />
    <glyph glyph-name="uni00E9" unicode="&#xe9;" horiz-adv-x="1192" 
d="M625 -23q-240 0 -380 156.5t-140 416.5q0 259 138.5 420.5t364.5 161.5q73 0 139.5 -17.5t129.5 -59.5t109 -105t74 -159.5t28 -217.5v-73h-811q6 -176 100 -272.5t248 -96.5q103 0 175 44t105 130l166 -46q-40 -128 -159 -205t-287 -77zM277 649h636q0 144 -83.5 236
t-221.5 92q-141 0 -231.5 -95.5t-99.5 -232.5zM521 1268l177 338h201l-227 -338h-151z" />
    <glyph glyph-name="uni00EA" unicode="&#xea;" horiz-adv-x="1192" 
d="M625 -23q-240 0 -380 156.5t-140 416.5q0 259 138.5 420.5t364.5 161.5q73 0 139.5 -17.5t129.5 -59.5t109 -105t74 -159.5t28 -217.5v-73h-811q6 -176 100 -272.5t248 -96.5q103 0 175 44t105 130l166 -46q-40 -128 -159 -205t-287 -77zM277 649h636q0 144 -83.5 236
t-221.5 92q-141 0 -231.5 -95.5t-99.5 -232.5zM751 1251l-152 204l-151 -204h-163v12l236 302h157l235 -302v-12h-162z" />
    <glyph glyph-name="uni00EB" unicode="&#xeb;" horiz-adv-x="1192" 
d="M625 -23q-240 0 -380 156.5t-140 416.5q0 259 138.5 420.5t364.5 161.5q73 0 139.5 -17.5t129.5 -59.5t109 -105t74 -159.5t28 -217.5v-73h-811q6 -176 100 -272.5t248 -96.5q103 0 175 44t105 130l166 -46q-40 -128 -159 -205t-287 -77zM277 649h636q0 144 -83.5 236
t-221.5 92q-141 0 -231.5 -95.5t-99.5 -232.5zM390 1303q-46 0 -81.5 35.5t-35.5 81.5q0 49 35 82.5t82 33.5q50 0 83 -33t33 -83q0 -47 -33.5 -82t-82.5 -35zM809 1303q-46 0 -81.5 35.5t-35.5 81.5q0 49 35 82.5t82 33.5q50 0 83 -33t33 -83q0 -47 -33.5 -82t-82.5 -35z
" />
    <glyph glyph-name="uni00EC" unicode="&#xec;" horiz-adv-x="485" 
d="M157 0v1117h172v-1117h-172zM172 1268l-227 338h200l178 -338h-151z" />
    <glyph glyph-name="uni00ED" unicode="&#xed;" horiz-adv-x="485" 
d="M157 0v1117h172v-1117h-172zM166 1268l177 338h201l-227 -338h-151z" />
    <glyph glyph-name="uni00EE" unicode="&#xee;" horiz-adv-x="485" 
d="M157 0v1117h172v-1117h-172zM396 1251l-152 204l-151 -204h-163v12l236 302h157l236 -302v-12h-163z" />
    <glyph glyph-name="uni00EF" unicode="&#xef;" horiz-adv-x="485" 
d="M157 0v1117h172v-1117h-172zM35 1303q-46 0 -81 35.5t-35 81.5q0 49 34.5 82.5t81.5 33.5q50 0 83 -33t33 -83q0 -47 -33.5 -82t-82.5 -35zM454 1303q-46 0 -81.5 35.5t-35.5 81.5q0 49 35 82.5t82 33.5q50 0 83 -33t33 -83q0 -47 -33.5 -82t-82.5 -35z" />
    <glyph glyph-name="uni00F0" unicode="&#xf0;" horiz-adv-x="1186" 
d="M966 1417l-205 -99q148 -154 234.5 -348.5t86.5 -422.5q0 -267 -133 -418.5t-356 -151.5q-222 0 -355 149.5t-133 385.5q0 234 128.5 384.5t316.5 150.5q115 0 197 -55.5t126 -133.5h14q-79 225 -259 396l-259 -125l-49 107l209 101q-88 66 -197 123l75 123
q143 -75 262 -178l247 119zM593 131q154 0 238.5 103.5t84.5 265.5q0 59 -11 115t-36.5 109t-62 93t-91.5 64t-122 24q-102 0 -175.5 -55.5t-107.5 -142.5t-34 -195q0 -77 18.5 -143.5t55.5 -120.5t99.5 -85.5t143.5 -31.5z" />
    <glyph glyph-name="uni00F1" unicode="&#xf1;" horiz-adv-x="1198" 
d="M329 672v-672h-172v1117h166v-174h14q87 189 326 189q175 0 276.5 -107t101.5 -315v-710h-171v698q0 131 -68 205t-188 74q-126 0 -205.5 -81t-79.5 -224zM375 1251l-134 6q0 110 63.5 181.5t158.5 71.5q56 0 134 -46.5t130 -46.5q41 0 70 32t29 78l131 -11
q0 -111 -63 -179.5t-158 -68.5q-45 0 -82.5 14.5t-59 32t-54 32t-69.5 14.5q-41 0 -68.5 -32t-27.5 -78z" />
    <glyph glyph-name="uni00F2" unicode="&#xf2;" horiz-adv-x="1221" 
d="M611 -23q-227 0 -366.5 158.5t-139.5 417.5q0 261 139 420t367 159t367 -159t139 -420q0 -259 -139.5 -417.5t-366.5 -158.5zM611 131q84 0 149 34t104.5 93t60 134t20.5 161t-20.5 161t-60 134.5t-105 94t-148.5 34.5t-148.5 -34.5t-105.5 -94t-60.5 -134.5t-20.5 -161
t20.5 -161t60.5 -134t105 -93t149 -34zM538 1268l-227 338h201l177 -338h-151z" />
    <glyph glyph-name="uni00F3" unicode="&#xf3;" horiz-adv-x="1221" 
d="M611 -23q-227 0 -366.5 158.5t-139.5 417.5q0 261 139 420t367 159t367 -159t139 -420q0 -259 -139.5 -417.5t-366.5 -158.5zM611 131q84 0 149 34t104.5 93t60 134t20.5 161t-20.5 161t-60 134.5t-105 94t-148.5 34.5t-148.5 -34.5t-105.5 -94t-60.5 -134.5t-20.5 -161
t20.5 -161t60.5 -134t105 -93t149 -34zM532 1268l178 338h201l-227 -338h-152z" />
    <glyph glyph-name="uni00F4" unicode="&#xf4;" horiz-adv-x="1221" 
d="M611 -23q-227 0 -366.5 158.5t-139.5 417.5q0 261 139 420t367 159t367 -159t139 -420q0 -259 -139.5 -417.5t-366.5 -158.5zM611 131q84 0 149 34t104.5 93t60 134t20.5 161t-20.5 161t-60 134.5t-105 94t-148.5 34.5t-148.5 -34.5t-105.5 -94t-60.5 -134.5t-20.5 -161
t20.5 -161t60.5 -134t105 -93t149 -34zM762 1251l-151 204l-151 -204h-163v12l235 302h157l236 -302v-12h-163z" />
    <glyph glyph-name="uni00F5" unicode="&#xf5;" horiz-adv-x="1221" 
d="M611 -23q-227 0 -366.5 158.5t-139.5 417.5q0 261 139 420t367 159t367 -159t139 -420q0 -259 -139.5 -417.5t-366.5 -158.5zM611 131q84 0 149 34t104.5 93t60 134t20.5 161t-20.5 161t-60 134.5t-105 94t-148.5 34.5t-148.5 -34.5t-105.5 -94t-60.5 -134.5t-20.5 -161
t20.5 -161t60.5 -134t105 -93t149 -34zM387 1251l-134 6q0 110 63 181.5t158 71.5q56 0 134.5 -46.5t130.5 -46.5q41 0 70 32t29 78l131 -11q0 -111 -63 -179.5t-158 -68.5q-45 0 -82.5 14.5t-59 32t-54 32t-69.5 14.5q-41 0 -68.5 -32t-27.5 -78z" />
    <glyph glyph-name="uni00F6" unicode="&#xf6;" horiz-adv-x="1221" 
d="M611 -23q-227 0 -366.5 158.5t-139.5 417.5q0 261 139 420t367 159t367 -159t139 -420q0 -259 -139.5 -417.5t-366.5 -158.5zM611 131q84 0 149 34t104.5 93t60 134t20.5 161t-20.5 161t-60 134.5t-105 94t-148.5 34.5t-148.5 -34.5t-105.5 -94t-60.5 -134.5t-20.5 -161
t20.5 -161t60.5 -134t105 -93t149 -34zM401 1303q-46 0 -81 35.5t-35 81.5q0 49 34.5 82.5t81.5 33.5q50 0 83.5 -33t33.5 -83q0 -47 -34 -82t-83 -35zM820 1303q-46 0 -81 35.5t-35 81.5q0 49 34.5 82.5t81.5 33.5q50 0 83.5 -33t33.5 -83q0 -47 -34 -82t-83 -35z" />
    <glyph glyph-name="uni00F7" unicode="&#xf7;" horiz-adv-x="1349" 
d="M1140 663v-163h-931v163h931zM675 829q-55 0 -93 38t-38 93q0 53 38 90.5t93 37.5q53 0 90.5 -38t37.5 -90q0 -55 -37.5 -93t-90.5 -38zM675 76q-55 0 -93 38t-38 93q0 53 38 90.5t93 37.5q53 0 90.5 -37.5t37.5 -90.5q0 -55 -37.5 -93t-90.5 -38z" />
    <glyph glyph-name="uni00F8" unicode="&#xf8;" horiz-adv-x="1221" 
d="M276 -61l-110 76l80 118q-141 160 -141 420q0 261 139 420t367 159q147 0 262 -70l72 107l111 -75l-80 -119q141 -162 141 -422q0 -259 -139.5 -417.5t-366.5 -158.5q-147 0 -262 70zM611 131q84 0 149 34t104.5 93t60 134t20.5 161q0 166 -68 276l-438 -650
q73 -48 172 -48zM344 279l439 650q-73 48 -172 48q-83 0 -148.5 -34.5t-105.5 -94t-60.5 -134.5t-20.5 -161q0 -163 68 -274z" />
    <glyph glyph-name="uni00F9" unicode="&#xf9;" horiz-adv-x="1189" 
d="M861 457v660h172v-1117h-172v189h-12q-42 -91 -126.5 -147.5t-204.5 -56.5q-163 0 -262 107.5t-99 314.5v710h172v-698q0 -121 68 -194.5t176 -73.5q50 0 99.5 19t92.5 55t69.5 96.5t26.5 135.5zM524 1268l-227 338h200l178 -338h-151z" />
    <glyph glyph-name="uni00FA" unicode="&#xfa;" horiz-adv-x="1189" 
d="M861 457v660h172v-1117h-172v189h-12q-42 -91 -126.5 -147.5t-204.5 -56.5q-163 0 -262 107.5t-99 314.5v710h172v-698q0 -121 68 -194.5t176 -73.5q50 0 99.5 19t92.5 55t69.5 96.5t26.5 135.5zM518 1268l177 338h201l-227 -338h-151z" />
    <glyph glyph-name="uni00FB" unicode="&#xfb;" horiz-adv-x="1189" 
d="M861 457v660h172v-1117h-172v189h-12q-42 -91 -126.5 -147.5t-204.5 -56.5q-163 0 -262 107.5t-99 314.5v710h172v-698q0 -121 68 -194.5t176 -73.5q50 0 99.5 19t92.5 55t69.5 96.5t26.5 135.5zM748 1251l-152 204l-151 -204h-163v12l236 302h157l236 -302v-12h-163z
" />
    <glyph glyph-name="uni00FC" unicode="&#xfc;" horiz-adv-x="1189" 
d="M861 457v660h172v-1117h-172v189h-12q-42 -91 -126.5 -147.5t-204.5 -56.5q-163 0 -262 107.5t-99 314.5v710h172v-698q0 -121 68 -194.5t176 -73.5q50 0 99.5 19t92.5 55t69.5 96.5t26.5 135.5zM387 1303q-46 0 -81 35.5t-35 81.5q0 49 34.5 82.5t81.5 33.5q50 0 83 -33
t33 -83q0 -47 -33.5 -82t-82.5 -35zM806 1303q-46 0 -81.5 35.5t-35.5 81.5q0 49 35 82.5t82 33.5q50 0 83 -33t33 -83q0 -47 -33.5 -82t-82.5 -35z" />
    <glyph glyph-name="uni00FD" unicode="&#xfd;" horiz-adv-x="1140" 
d="M268 -419q-87 0 -125 20l43 152q101 -26 160.5 3.5t104.5 150.5l32 87l-413 1123h186l308 -890h12l308 890h187l-475 -1280q-96 -256 -328 -256zM492 1268l177 338h201l-227 -338h-151z" />
    <glyph glyph-name="uni00FE" unicode="&#xfe;" horiz-adv-x="1248" 
d="M157 1489h172v-549h14q0 1 13 21.5t18 27t20.5 26.5t27.5 29.5t32 26t40.5 25t47 18.5t58 14t66.5 4q213 0 345 -157t132 -419q0 -264 -131.5 -421.5t-342.5 -157.5q-195 0 -299 152q-8 13 -22 35l-5 8h-14v-591h-172v1908zM972 559q0 120 -35.5 213t-110 149t-180.5 56
q-154 0 -237 -113t-83 -305q0 -194 84 -311t236 -117q104 0 179 58t111 153t36 217z" />
    <glyph glyph-name="uni00FF" unicode="&#xff;" horiz-adv-x="1140" 
d="M268 -419q-87 0 -125 20l43 152q101 -26 160.5 3.5t104.5 150.5l32 87l-413 1123h186l308 -890h12l308 890h187l-475 -1280q-96 -256 -328 -256zM361 1303q-46 0 -81.5 35.5t-35.5 81.5q0 49 35 82.5t82 33.5q50 0 83 -33t33 -83q0 -47 -33.5 -82t-82.5 -35zM780 1303
q-46 0 -81.5 35.5t-35.5 81.5q0 49 35 82.5t82 33.5q50 0 83 -33t33 -83q0 -47 -33.5 -82t-82.5 -35z" />
    <glyph glyph-name="uni0100" unicode="&#x100;" horiz-adv-x="1384" 
d="M241 0h-189l547 1489h186l547 -1489h-189l-150 422h-602zM448 582h489l-239 672h-11zM1033 1862v-146h-681v146h681z" />
    <glyph glyph-name="uni0101" unicode="&#x101;" horiz-adv-x="1154" 
d="M486 -26q-165 0 -273 92t-108 251q0 53 13.5 97t35.5 75.5t57 56t69 40t82 28t86 19t90 13.5q28 4 63 8t56 6t46 5.5t39.5 6.5t30.5 8t24 10.5t15.5 14t10.5 19t3 24.5v5q0 109 -59 168t-176 59q-113 0 -185.5 -48.5t-105.5 -119.5l-163 58q31 73 82 126.5t112.5 81.5
t123.5 41t130 13q35 0 68 -3t76 -13.5t79 -27.5t72 -47.5t61.5 -70.5t41 -100.5t15.5 -133.5v-736h-172v151h-9q-15 -30 -40 -59t-64.5 -56.5t-98.5 -44.5t-128 -17zM512 128q146 0 230 82t84 194v157q-5 -6 -15 -11t-26 -10t-32.5 -9t-39 -8t-40 -7t-42 -6.5t-38.5 -5
t-36 -4t-28 -3.5q-55 -7 -97 -18.5t-79 -32.5t-57 -56t-20 -82q0 -87 65 -133.5t171 -46.5zM937 1489v-145h-681v145h681z" />
    <glyph glyph-name="uni0102" unicode="&#x102;" horiz-adv-x="1384" 
d="M241 0h-189l547 1489h186l547 -1489h-189l-150 422h-602zM448 582h489l-239 672h-11zM835 1862h160q0 -119 -82.5 -193.5t-220.5 -74.5q-136 0 -217.5 74.5t-81.5 193.5h160q0 -63 33.5 -103t105.5 -40t107.5 40.5t35.5 102.5z" />
    <glyph glyph-name="uni0103" unicode="&#x103;" horiz-adv-x="1154" 
d="M486 -26q-165 0 -273 92t-108 251q0 53 13.5 97t35.5 75.5t57 56t69 40t82 28t86 19t90 13.5q28 4 63 8t56 6t46 5.5t39.5 6.5t30.5 8t24 10.5t15.5 14t10.5 19t3 24.5v5q0 109 -59 168t-176 59q-113 0 -185.5 -48.5t-105.5 -119.5l-163 58q31 73 82 126.5t112.5 81.5
t123.5 41t130 13q35 0 68 -3t76 -13.5t79 -27.5t72 -47.5t61.5 -70.5t41 -100.5t15.5 -133.5v-736h-172v151h-9q-15 -30 -40 -59t-64.5 -56.5t-98.5 -44.5t-128 -17zM512 128q146 0 230 82t84 194v157q-5 -6 -15 -11t-26 -10t-32.5 -9t-39 -8t-40 -7t-42 -6.5t-38.5 -5
t-36 -4t-28 -3.5q-55 -7 -97 -18.5t-79 -32.5t-57 -56t-20 -82q0 -87 65 -133.5t171 -46.5zM739 1489h160q0 -119 -82.5 -193t-220.5 -74q-136 0 -217.5 74t-81.5 193h160q0 -63 33.5 -102.5t105.5 -39.5t107.5 40t35.5 102z" />
    <glyph glyph-name="uni0104" unicode="&#x104;" horiz-adv-x="1384" 
d="M241 0h-189l547 1489h186l547 -1489q-79 -58 -123.5 -110t-44.5 -111q0 -35 16.5 -52.5t58.5 -17.5q56 0 99 26l12 -128q-69 -43 -154 -43q-92 0 -149.5 50.5t-57.5 141.5q0 139 154 244l-150 422h-602zM448 582h489l-239 672h-11z" />
    <glyph glyph-name="uni0105" unicode="&#x105;" horiz-adv-x="1154" 
d="M486 -26q-165 0 -273 92t-108 251q0 53 13.5 97t35.5 75.5t57 56t69 40t82 28t86 19t90 13.5q28 4 63 8t56 6t46 5.5t39.5 6.5t30.5 8t24 10.5t15.5 14t10.5 19t3 24.5v5q0 109 -59 168t-176 59q-113 0 -185.5 -48.5t-105.5 -119.5l-163 58q31 73 82 126.5t112.5 81.5
t123.5 41t130 13q35 0 68 -3t76 -13.5t79 -27.5t72 -47.5t61.5 -70.5t41 -100.5t15.5 -133.5v-736q-80 -59 -124.5 -110.5t-44.5 -110.5q0 -35 17 -52.5t59 -17.5q56 0 99 26l11 -128q-69 -43 -154 -43q-92 0 -149 50.5t-57 141.5q0 148 171 256v139h-9q-15 -30 -40 -59
t-64.5 -56.5t-98.5 -44.5t-128 -17zM512 128q146 0 230 82t84 194v157q-5 -6 -15 -11t-26 -10t-32.5 -9t-39 -8t-40 -7t-42 -6.5t-38.5 -5t-36 -4t-28 -3.5q-55 -7 -97 -18.5t-79 -32.5t-57 -56t-20 -82q0 -87 65 -133.5t171 -46.5z" />
    <glyph glyph-name="uni0106" unicode="&#x106;" horiz-adv-x="1489" 
d="M1379 1024h-180q-32 150 -148.5 233.5t-270.5 83.5q-211 0 -347 -157.5t-136 -438.5t136 -439t347 -158q154 0 270.5 83.5t148.5 233.5h180q-41 -225 -205.5 -355t-393.5 -130q-142 0 -263.5 54t-208.5 151.5t-136.5 241.5t-49.5 318t49.5 318t136.5 241.5t208.5 151.5
t263.5 54q229 0 393.5 -130.5t205.5 -355.5zM701 1641l178 337h200l-227 -337h-151z" />
    <glyph glyph-name="uni0107" unicode="&#x107;" horiz-adv-x="1143" 
d="M611 -23q-232 0 -369 160.5t-137 415.5q0 257 138.5 418t364.5 161q177 0 298.5 -96t143.5 -253h-171q-21 83 -91 138.5t-177 55.5q-151 0 -243 -114.5t-92 -303.5q0 -195 91 -311.5t244 -116.5q101 0 172.5 52t95.5 143h171q-22 -153 -140 -251t-299 -98zM527 1268
l177 338h201l-227 -338h-151z" />
    <glyph glyph-name="uni0108" unicode="&#x108;" horiz-adv-x="1489" 
d="M1379 1024h-180q-32 150 -148.5 233.5t-270.5 83.5q-211 0 -347 -157.5t-136 -438.5t136 -439t347 -158q154 0 270.5 83.5t148.5 233.5h180q-41 -225 -205.5 -355t-393.5 -130q-142 0 -263.5 54t-208.5 151.5t-136.5 241.5t-49.5 318t49.5 318t136.5 241.5t208.5 151.5
t263.5 54q229 0 393.5 -130.5t205.5 -355.5zM931 1623l-151 204l-152 -204h-163v12l236 302h157l236 -302v-12h-163z" />
    <glyph glyph-name="uni0109" unicode="&#x109;" horiz-adv-x="1143" 
d="M611 -23q-232 0 -369 160.5t-137 415.5q0 257 138.5 418t364.5 161q177 0 298.5 -96t143.5 -253h-171q-21 83 -91 138.5t-177 55.5q-151 0 -243 -114.5t-92 -303.5q0 -195 91 -311.5t244 -116.5q101 0 172.5 52t95.5 143h171q-22 -153 -140 -251t-299 -98zM756 1251
l-151 204l-151 -204h-163v12l236 302h157l235 -302v-12h-163z" />
    <glyph glyph-name="uni010A" unicode="&#x10a;" horiz-adv-x="1489" 
d="M1379 1024h-180q-32 150 -148.5 233.5t-270.5 83.5q-211 0 -347 -157.5t-136 -438.5t136 -439t347 -158q154 0 270.5 83.5t148.5 233.5h180q-41 -225 -205.5 -355t-393.5 -130q-142 0 -263.5 54t-208.5 151.5t-136.5 241.5t-49.5 318t49.5 318t136.5 241.5t208.5 151.5
t263.5 54q229 0 393.5 -130.5t205.5 -355.5zM780 1676q-50 0 -86.5 34t-36.5 82t36.5 82t86.5 34t86 -34t36 -82t-36 -82t-86 -34z" />
    <glyph glyph-name="uni010B" unicode="&#x10b;" horiz-adv-x="1143" 
d="M611 -23q-232 0 -369 160.5t-137 415.5q0 257 138.5 418t364.5 161q177 0 298.5 -96t143.5 -253h-171q-21 83 -91 138.5t-177 55.5q-151 0 -243 -114.5t-92 -303.5q0 -195 91 -311.5t244 -116.5q101 0 172.5 52t95.5 143h171q-22 -153 -140 -251t-299 -98zM605 1303
q-50 0 -86 34.5t-36 82.5t36 82t86 34t86 -34t36 -82t-36 -82.5t-86 -34.5z" />
    <glyph glyph-name="uni010C" unicode="&#x10c;" horiz-adv-x="1489" 
d="M1379 1024h-180q-32 150 -148.5 233.5t-270.5 83.5q-211 0 -347 -157.5t-136 -438.5t136 -439t347 -158q154 0 270.5 83.5t148.5 233.5h180q-41 -225 -205.5 -355t-393.5 -130q-142 0 -263.5 54t-208.5 151.5t-136.5 241.5t-49.5 318t49.5 318t136.5 241.5t208.5 151.5
t263.5 54q229 0 393.5 -130.5t205.5 -355.5zM628 1937l152 -203l151 203h163v-11l-236 -303h-157l-236 303v11h163z" />
    <glyph glyph-name="uni010D" unicode="&#x10d;" horiz-adv-x="1143" 
d="M611 -23q-232 0 -369 160.5t-137 415.5q0 257 138.5 418t364.5 161q177 0 298.5 -96t143.5 -253h-171q-21 83 -91 138.5t-177 55.5q-151 0 -243 -114.5t-92 -303.5q0 -195 91 -311.5t244 -116.5q101 0 172.5 52t95.5 143h171q-22 -153 -140 -251t-299 -98zM454 1565
l151 -204l151 204h163v-12l-235 -302h-157l-236 302v12h163z" />
    <glyph glyph-name="uni010E" unicode="&#x10e;" horiz-adv-x="1472" 
d="M640 0h-460v1489h480q324 0 507 -196.5t183 -544.5q0 -351 -186 -549.5t-524 -198.5zM361 160h267q271 0 409 154.5t138 433.5q0 275 -134 428t-392 153h-288v-1169zM465 1937l152 -203l151 203h163v-11l-236 -303h-157l-235 303v11h162z" />
    <glyph glyph-name="uni010F" unicode="&#x10f;" horiz-adv-x="1386" 
d="M579 -23q-211 0 -342.5 157.5t-131.5 421.5q0 262 132 419t345 157q35 0 66.5 -4t58 -14t47 -18.5t40.5 -25t32 -26t27.5 -29.5t20.5 -26.5t18 -27t13 -21.5h14v549h172v-1489h-166v172h-20q-45 -72 -79 -105q-95 -90 -247 -90zM602 131q152 0 236 117t84 311
q0 192 -83 305t-237 113q-106 0 -180.5 -56t-110 -149t-35.5 -213q0 -122 36 -217t111 -153t179 -58zM1233 1183v376h176l-50 -376h-126z" />
    <glyph glyph-name="uni0110" unicode="&#x110;" horiz-adv-x="1472" 
d="M640 0h-460v701h-229v134h229v654h480q324 0 507 -196.5t183 -544.5q0 -351 -186 -549.5t-524 -198.5zM361 160h267q271 0 409 154.5t138 433.5q0 275 -134 428t-392 153h-288v-494h230v-134h-230v-541z" />
    <glyph glyph-name="uni0111" unicode="&#x111;" horiz-adv-x="1271" 
d="M579 -23q-211 0 -342.5 157.5t-131.5 421.5q0 262 132 419t345 157q35 0 66.5 -4t58 -14t47 -18.5t40.5 -25t32 -26t27.5 -29.5t20.5 -26.5t18 -27t13 -21.5h14v273h-308v134h308v142h172v-142h160v-134h-160v-1213h-166v172h-20q-45 -72 -79 -105q-95 -90 -247 -90z
M602 131q152 0 236 117t84 311q0 192 -83 305t-237 113q-106 0 -180.5 -56t-110 -149t-35.5 -213q0 -122 36 -217t111 -153t179 -58z" />
    <glyph glyph-name="uni0112" unicode="&#x112;" horiz-adv-x="1224" 
d="M180 0v1489h899v-160h-718v-503h672v-160h-672v-506h730v-160h-911zM969 1862v-146h-681v146h681z" />
    <glyph glyph-name="uni0113" unicode="&#x113;" horiz-adv-x="1192" 
d="M625 -23q-240 0 -380 156.5t-140 416.5q0 259 138.5 420.5t364.5 161.5q73 0 139.5 -17.5t129.5 -59.5t109 -105t74 -159.5t28 -217.5v-73h-811q6 -176 100 -272.5t248 -96.5q103 0 175 44t105 130l166 -46q-40 -128 -159 -205t-287 -77zM277 649h636q0 144 -83.5 236
t-221.5 92q-141 0 -231.5 -95.5t-99.5 -232.5zM940 1489v-145h-681v145h681z" />
    <glyph glyph-name="uni0114" unicode="&#x114;" horiz-adv-x="1224" 
d="M180 0v1489h899v-160h-718v-503h672v-160h-672v-506h730v-160h-911zM771 1862h160q0 -119 -82.5 -193.5t-220.5 -74.5q-136 0 -217.5 74.5t-81.5 193.5h160q0 -63 33.5 -103t105.5 -40t107.5 40.5t35.5 102.5z" />
    <glyph glyph-name="uni0115" unicode="&#x115;" horiz-adv-x="1192" 
d="M625 -23q-240 0 -380 156.5t-140 416.5q0 259 138.5 420.5t364.5 161.5q73 0 139.5 -17.5t129.5 -59.5t109 -105t74 -159.5t28 -217.5v-73h-811q6 -176 100 -272.5t248 -96.5q103 0 175 44t105 130l166 -46q-40 -128 -159 -205t-287 -77zM277 649h636q0 144 -83.5 236
t-221.5 92q-141 0 -231.5 -95.5t-99.5 -232.5zM742 1489h160q0 -119 -82.5 -193t-220.5 -74q-136 0 -217.5 74t-81.5 193h160q0 -63 33.5 -102.5t105.5 -39.5t107.5 40t35.5 102z" />
    <glyph glyph-name="uni0116" unicode="&#x116;" horiz-adv-x="1224" 
d="M180 0v1489h899v-160h-718v-503h672v-160h-672v-506h730v-160h-911zM628 1676q-50 0 -86 34t-36 82t36 82t86 34t86.5 -34t36.5 -82t-36.5 -82t-86.5 -34z" />
    <glyph glyph-name="uni0117" unicode="&#x117;" horiz-adv-x="1192" 
d="M625 -23q-240 0 -380 156.5t-140 416.5q0 259 138.5 420.5t364.5 161.5q73 0 139.5 -17.5t129.5 -59.5t109 -105t74 -159.5t28 -217.5v-73h-811q6 -176 100 -272.5t248 -96.5q103 0 175 44t105 130l166 -46q-40 -128 -159 -205t-287 -77zM277 649h636q0 144 -83.5 236
t-221.5 92q-141 0 -231.5 -95.5t-99.5 -232.5zM599 1303q-50 0 -86 34.5t-36 82.5t36 82t86 34t86 -34t36 -82t-36 -82.5t-86 -34.5z" />
    <glyph glyph-name="uni0118" unicode="&#x118;" horiz-adv-x="1224" 
d="M180 0v1489h899v-160h-718v-503h672v-160h-672v-506h730v-160q-80 -59 -124.5 -110.5t-44.5 -110.5q0 -35 17 -52.5t59 -17.5q56 0 99 26l11 -128q-69 -43 -154 -43q-92 0 -149 50.5t-57 141.5q0 139 154 244h-722z" />
    <glyph glyph-name="uni0119" unicode="&#x119;" horiz-adv-x="1192" 
d="M631 -436q-92 0 -149 50.5t-57 141.5q0 125 128 225q-209 24 -328.5 177.5t-119.5 391.5q0 259 138.5 420.5t364.5 161.5q73 0 139.5 -17.5t129.5 -59.5t109 -105t74 -159.5t28 -217.5v-73h-811q6 -176 100 -272.5t248 -96.5q103 0 175 44t105 130l166 -46
q-32 -102 -114.5 -172.5t-202.5 -96.5q-73 -55 -114 -104.5t-41 -106.5q0 -35 17 -52.5t59 -17.5q56 0 99 26l11 -128q-69 -43 -154 -43zM277 649h636q0 144 -83.5 236t-221.5 92q-141 0 -231.5 -95.5t-99.5 -232.5z" />
    <glyph glyph-name="uni011A" unicode="&#x11a;" horiz-adv-x="1224" 
d="M180 0v1489h899v-160h-718v-503h672v-160h-672v-506h730v-160h-911zM477 1937l151 -203l152 203h163v-11l-236 -303h-157l-236 303v11h163z" />
    <glyph glyph-name="uni011B" unicode="&#x11b;" horiz-adv-x="1192" 
d="M625 -23q-240 0 -380 156.5t-140 416.5q0 259 138.5 420.5t364.5 161.5q73 0 139.5 -17.5t129.5 -59.5t109 -105t74 -159.5t28 -217.5v-73h-811q6 -176 100 -272.5t248 -96.5q103 0 175 44t105 130l166 -46q-40 -128 -159 -205t-287 -77zM277 649h636q0 144 -83.5 236
t-221.5 92q-141 0 -231.5 -95.5t-99.5 -232.5zM448 1565l151 -204l152 204h162v-12l-235 -302h-157l-236 302v12h163z" />
    <glyph glyph-name="uni011C" unicode="&#x11c;" horiz-adv-x="1521" 
d="M1199 1024q-48 150 -157.5 233.5t-267.5 83.5q-100 0 -186.5 -39.5t-151.5 -113t-102 -187.5t-37 -256q0 -282 137 -439.5t351 -157.5q191 0 310.5 119t123.5 318h-393v160h567v-160q0 -274 -169.5 -439.5t-438.5 -165.5q-299 0 -481 207t-182 558q0 349 181 557t471 208
q234 0 402 -134.5t209 -351.5h-186zM925 1623l-151 204l-151 -204h-163v12l235 302h157l236 -302v-12h-163z" />
    <glyph glyph-name="uni011D" unicode="&#x11d;" horiz-adv-x="1248" 
d="M608 -442q-173 0 -285.5 62.5t-171.5 161.5l137 96q23 -31 32 -43t41 -42t61 -44t78.5 -27t107.5 -13q141 0 226 68.5t85 202.5v227h-14q-44 -71 -77 -102q-94 -88 -249 -88q-209 0 -341.5 146t-132.5 401q0 256 132 412t345 156q58 0 108 -14t80 -30t60.5 -47t40.5 -45
t29 -44q6 -8 8 -12h17v177h166v-1149q0 -105 -37.5 -185t-104 -128.5t-152.5 -72.5t-189 -24zM602 172q154 0 237 104t83 291q0 186 -83.5 298t-236.5 112q-157 0 -241.5 -115.5t-84.5 -294.5q0 -180 84.5 -287.5t241.5 -107.5zM777 1251l-152 204l-151 -204h-163v12
l236 302h157l236 -302v-12h-163z" />
    <glyph glyph-name="uni011E" unicode="&#x11e;" horiz-adv-x="1521" 
d="M1199 1024q-48 150 -157.5 233.5t-267.5 83.5q-100 0 -186.5 -39.5t-151.5 -113t-102 -187.5t-37 -256q0 -282 137 -439.5t351 -157.5q191 0 310.5 119t123.5 318h-393v160h567v-160q0 -274 -169.5 -439.5t-438.5 -165.5q-299 0 -481 207t-182 558q0 349 181 557t471 208
q234 0 402 -134.5t209 -351.5h-186zM916 1862h160q0 -119 -82 -193.5t-220 -74.5q-136 0 -218 74.5t-82 193.5h160q0 -63 34 -103t106 -40t107 40.5t35 102.5z" />
    <glyph glyph-name="uni011F" unicode="&#x11f;" horiz-adv-x="1248" 
d="M608 -442q-173 0 -285.5 62.5t-171.5 161.5l137 96q23 -31 32 -43t41 -42t61 -44t78.5 -27t107.5 -13q141 0 226 68.5t85 202.5v227h-14q-44 -71 -77 -102q-94 -88 -249 -88q-209 0 -341.5 146t-132.5 401q0 256 132 412t345 156q58 0 108 -14t80 -30t60.5 -47t40.5 -45
t29 -44q6 -8 8 -12h17v177h166v-1149q0 -105 -37.5 -185t-104 -128.5t-152.5 -72.5t-189 -24zM602 172q154 0 237 104t83 291q0 186 -83.5 298t-236.5 112q-157 0 -241.5 -115.5t-84.5 -294.5q0 -180 84.5 -287.5t241.5 -107.5zM768 1489h160q0 -119 -82.5 -193t-220.5 -74
q-136 0 -217.5 74t-81.5 193h160q0 -63 33.5 -102.5t105.5 -39.5t107.5 40t35.5 102z" />
    <glyph glyph-name="uni0120" unicode="&#x120;" horiz-adv-x="1521" 
d="M1199 1024q-48 150 -157.5 233.5t-267.5 83.5q-100 0 -186.5 -39.5t-151.5 -113t-102 -187.5t-37 -256q0 -282 137 -439.5t351 -157.5q191 0 310.5 119t123.5 318h-393v160h567v-160q0 -274 -169.5 -439.5t-438.5 -165.5q-299 0 -481 207t-182 558q0 349 181 557t471 208
q234 0 402 -134.5t209 -351.5h-186zM774 1676q-50 0 -86 34t-36 82t36 82t86 34t86 -34t36 -82t-36 -82t-86 -34z" />
    <glyph glyph-name="uni0121" unicode="&#x121;" horiz-adv-x="1248" 
d="M608 -442q-173 0 -285.5 62.5t-171.5 161.5l137 96q23 -31 32 -43t41 -42t61 -44t78.5 -27t107.5 -13q141 0 226 68.5t85 202.5v227h-14q-44 -71 -77 -102q-94 -88 -249 -88q-209 0 -341.5 146t-132.5 401q0 256 132 412t345 156q58 0 108 -14t80 -30t60.5 -47t40.5 -45
t29 -44q6 -8 8 -12h17v177h166v-1149q0 -105 -37.5 -185t-104 -128.5t-152.5 -72.5t-189 -24zM602 172q154 0 237 104t83 291q0 186 -83.5 298t-236.5 112q-157 0 -241.5 -115.5t-84.5 -294.5q0 -180 84.5 -287.5t241.5 -107.5zM625 1303q-50 0 -86 34.5t-36 82.5t36 82
t86 34t86.5 -34t36.5 -82t-36.5 -82.5t-86.5 -34.5z" />
    <glyph glyph-name="uni0122" unicode="&#x122;" horiz-adv-x="1521" 
d="M1199 1024q-48 150 -157.5 233.5t-267.5 83.5q-100 0 -186.5 -39.5t-151.5 -113t-102 -187.5t-37 -256q0 -282 137 -439.5t351 -157.5q191 0 310.5 119t123.5 318h-393v160h567v-160q0 -274 -169.5 -439.5t-438.5 -165.5q-299 0 -481 207t-182 558q0 349 181 557t471 208
q234 0 402 -134.5t209 -351.5h-186zM601 -495l81 377h176l-123 -377h-134z" />
    <glyph glyph-name="uni0123" unicode="&#x123;" horiz-adv-x="1248" 
d="M608 -442q-173 0 -285.5 62.5t-171.5 161.5l137 96q23 -31 32 -43t41 -42t61 -44t78.5 -27t107.5 -13q141 0 226 68.5t85 202.5v227h-14q-44 -71 -77 -102q-94 -88 -249 -88q-209 0 -341.5 146t-132.5 401q0 256 132 412t345 156q58 0 108 -14t80 -30t60.5 -47t40.5 -45
t29 -44q6 -8 8 -12h17v177h166v-1149q0 -105 -37.5 -185t-104 -128.5t-152.5 -72.5t-189 -24zM602 172q154 0 237 104t83 291q0 186 -83.5 298t-236.5 112q-157 0 -241.5 -115.5t-84.5 -294.5q0 -180 84.5 -287.5t241.5 -107.5zM521 1265v128q0 85 47 175t101 137l114 -90
q-62 -107 -62 -230v-120h-200z" />
    <glyph glyph-name="uni0124" unicode="&#x124;" horiz-adv-x="1515" 
d="M180 0v1489h181v-663h794v663h180v-1489h-180v666h-794v-666h-181zM916 1626l-151 204l-151 -204h-163v12l236 302h157l235 -302v-12h-163z" />
    <glyph glyph-name="uni0125" unicode="&#x125;" horiz-adv-x="1210" 
d="M329 672v-672h-172v1489h172v-546h14q85 189 329 189q177 0 279 -106.5t102 -315.5v-710h-172v698q0 132 -68.5 205.5t-189.5 73.5q-130 0 -212 -81t-82 -224zM396 1623l-152 204l-151 -204h-163v12l236 302h157l236 -302v-12h-163z" />
    <glyph glyph-name="uni0126" unicode="&#x126;" horiz-adv-x="1591" 
d="M1492 1175v-151h-119v-1024h-180v666h-794v-666h-181v1024h-119v151h119v314h181v-314h794v314h180v-314h119zM1193 1024h-794v-198h794v198z" />
    <glyph glyph-name="uni0127" unicode="&#x127;" horiz-adv-x="1210" 
d="M329 672v-672h-172v1236h-233v134h233v119h172v-119h235v-134h-235v-293h14q85 189 329 189q177 0 279 -106.5t102 -315.5v-710h-172v698q0 132 -68.5 205.5t-189.5 73.5q-130 0 -212 -81t-82 -224z" />
    <glyph glyph-name="uni0128" unicode="&#x128;" horiz-adv-x="907" 
d="M544 1489v-1489h-180v1489h180zM230 1623l-134 6q0 110 63 181.5t158 71.5q56 0 134.5 -46.5t130.5 -46.5q41 0 70 32.5t29 78.5l131 -12q0 -111 -62.5 -179t-158.5 -68q-45 0 -82.5 14.5t-59 32t-54 32t-69.5 14.5q-41 0 -68.5 -32.5t-27.5 -78.5z" />
    <glyph glyph-name="uni0129" unicode="&#x129;" horiz-adv-x="570" 
d="M201 0v1117h171v-1117h-171zM64 1251l-134 6q0 110 63 181.5t158 71.5q56 0 134.5 -46.5t130.5 -46.5q41 0 70 32t29 78l131 -11q0 -111 -63 -179.5t-158 -68.5q-45 0 -82.5 14.5t-59 32t-54 32t-69.5 14.5q-41 0 -68.5 -32t-27.5 -78z" />
    <glyph glyph-name="uni012A" unicode="&#x12a;" horiz-adv-x="541" 
d="M361 1489v-1489h-181v1489h181zM611 1862v-146h-681v146h681z" />
    <glyph glyph-name="uni012B" unicode="&#x12b;" horiz-adv-x="485" 
d="M157 0v1117h172v-1117h-172zM585 1489v-145h-681v145h681z" />
    <glyph glyph-name="uni012C" unicode="&#x12c;" horiz-adv-x="541" 
d="M361 1489v-1489h-181v1489h181zM413 1862h160q0 -119 -82 -193.5t-220 -74.5q-136 0 -218 74.5t-82 193.5h160q0 -63 34 -103t106 -40t107 40.5t35 102.5z" />
    <glyph glyph-name="uni012D" unicode="&#x12d;" horiz-adv-x="485" 
d="M157 0v1117h172v-1117h-172zM387 1489h160q0 -119 -82.5 -193t-220.5 -74q-136 0 -217.5 74t-81.5 193h160q0 -63 33.5 -102.5t105.5 -39.5t107.5 40t35.5 102z" />
    <glyph glyph-name="uni012E" unicode="&#x12e;" horiz-adv-x="541" 
d="M361 1489v-1489q-80 -59 -124.5 -110.5t-44.5 -110.5q0 -35 17 -52.5t59 -17.5q56 0 99 26l11 -128q-69 -43 -154 -43q-92 0 -149.5 50.5t-57.5 141.5q0 143 163 250v1483h181z" />
    <glyph glyph-name="uni012F" unicode="&#x12f;" horiz-adv-x="485" 
d="M192 -436q-92 0 -149.5 50.5t-57.5 141.5q0 147 172 256v1105h172v-1117q-80 -59 -124.5 -110.5t-44.5 -110.5q0 -35 17 -52.5t59 -17.5q56 0 99 26l11 -128q-69 -43 -154 -43zM244 1303q-50 0 -86 34.5t-36 82.5t36 82t86 34t86.5 -34t36.5 -82t-36.5 -82.5t-86.5 -34.5
z" />
    <glyph glyph-name="uni0130" unicode="&#x130;" horiz-adv-x="541" 
d="M361 1489v-1489h-181v1489h181zM271 1676q-50 0 -86.5 34t-36.5 82t36.5 82t86.5 34t86 -34t36 -82t-36 -82t-86 -34z" />
    <glyph glyph-name="uni0131" unicode="&#x131;" horiz-adv-x="485" 
d="M157 0v1117h172v-1117h-172z" />
    <glyph glyph-name="uni0132" unicode="&#x132;" horiz-adv-x="1652" 
d="M1292 1489h180v-1064q0 -212 -114 -328.5t-311 -116.5q-186 0 -304 100t-118 269h178q0 -94 68 -151.5t176 -57.5q118 0 181.5 73.5t63.5 211.5v1064zM361 1489v-1489h-181v1489h181z" />
    <glyph glyph-name="uni0133" unicode="&#x133;" horiz-adv-x="971" 
d="M643 1117h172v-1198q0 -159 -81 -248.5t-239 -89.5h-35v160h32q151 0 151 178v1198zM157 0v1117h172v-1117h-172zM244 1303q-50 0 -86 34.5t-36 82.5t36 82t86 34t86.5 -34t36.5 -82t-36.5 -82.5t-86.5 -34.5zM727 1303q-50 0 -86 34.5t-36 82.5t36 82t86 34t86 -34
t36 -82t-36 -82.5t-86 -34.5z" />
    <glyph glyph-name="uni0134" unicode="&#x134;" horiz-adv-x="1111" 
d="M751 1489h180v-1064q0 -212 -114 -328.5t-311 -116.5q-186 0 -304 100t-118 269h178q0 -94 68 -151.5t176 -57.5q118 0 181.5 73.5t63.5 211.5v1064zM992 1623l-151 204l-152 -204h-162v12l235 302h157l236 -302v-12h-163z" />
    <glyph glyph-name="uni0135" unicode="&#x135;" horiz-adv-x="485" 
d="M157 1117h172v-1198q0 -159 -81 -248.5t-239 -89.5h-35v160h32q151 0 151 178v1198zM393 1251l-152 204l-151 -204h-163v12l236 302h157l236 -302v-12h-163z" />
    <glyph glyph-name="uni0136" unicode="&#x136;" horiz-adv-x="1335" 
d="M180 0v1489h181v-738h17l669 738h236l-626 -672l626 -817h-218l-518 692l-186 -209v-483h-181zM499 -495l81 377h176l-123 -377h-134z" />
    <glyph glyph-name="uni0137" unicode="&#x137;" horiz-adv-x="1114" 
d="M157 0v1489h172v-869h20l489 497h212l-472 -477l507 -640h-218l-418 529l-120 -111v-418h-172zM406 -495l81 377h176l-123 -377h-134z" />
    <glyph glyph-name="uni0138" unicode="&#x138;" horiz-adv-x="1291" 
d="M375 1117v-467h101l398 467h242l-480 -558l481 -559h-253l-409 479h-80v-479h-200v1117h200z" />
    <glyph glyph-name="uni0139" unicode="&#x139;" horiz-adv-x="1152" 
d="M180 0v1489h181v-1329h692v-160h-873zM192 1641l177 337h201l-227 -337h-151z" />
    <glyph glyph-name="uni013A" unicode="&#x13a;" horiz-adv-x="485" 
d="M329 1489v-1489h-172v1489h172zM163 1641l177 337h201l-227 -337h-151z" />
    <glyph glyph-name="uni013B" unicode="&#x13b;" horiz-adv-x="1152" 
d="M180 0v1489h181v-1329h692v-160h-873zM447 -495l81 377h176l-124 -377h-133z" />
    <glyph glyph-name="uni013C" unicode="&#x13c;" horiz-adv-x="485" 
d="M329 1489v-1489h-172v1489h172zM73 -495l81 377h176l-123 -377h-134z" />
    <glyph glyph-name="uni013D" unicode="&#x13d;" horiz-adv-x="1152" 
d="M180 0v1489h181v-1329h692v-160h-873zM614 1183v376h176l-51 -376h-125z" />
    <glyph glyph-name="uni013E" unicode="&#x13e;" horiz-adv-x="624" 
d="M329 1489v-1489h-172v1489h172zM471 1183v376h176l-51 -376h-125z" />
    <glyph glyph-name="uni013F" unicode="&#x13f;" horiz-adv-x="1152" 
d="M180 0v1489h181v-1329h692v-160h-873zM707 736q-50 0 -86 34t-36 82t36 82.5t86 34.5t86 -34.5t36 -82.5t-36 -82t-86 -34z" />
    <glyph glyph-name="uni0140" unicode="&#x140;" horiz-adv-x="645" 
d="M329 1489v-1489h-172v1489h172zM544 716q-50 0 -86 34t-36 82t36 82t86 34t86 -34t36 -82t-36 -82t-86 -34z" />
    <glyph glyph-name="uni0141" unicode="&#x141;" horiz-adv-x="1152" 
d="M634 931v-131l-273 -87v-553h692v-160h-873v657l-136 -43v131l136 43v701h181v-645z" />
    <glyph glyph-name="uni0142" unicode="&#x142;" horiz-adv-x="485" 
d="M489 931v-128l-160 -60v-743h-172v677l-160 -60v128l160 60v684h172v-618z" />
    <glyph glyph-name="uni0143" unicode="&#x143;" horiz-adv-x="1541" 
d="M1361 1489v-1489h-174l-812 1169h-14v-1169h-181v1489h175l814 -1172h15v1172h177zM692 1641l178 337h201l-227 -337h-152z" />
    <glyph glyph-name="uni0144" unicode="&#x144;" horiz-adv-x="1198" 
d="M329 672v-672h-172v1117h166v-174h14q87 189 326 189q175 0 276.5 -107t101.5 -315v-710h-171v698q0 131 -68 205t-188 74q-126 0 -205.5 -81t-79.5 -224zM521 1268l177 338h201l-227 -338h-151z" />
    <glyph glyph-name="uni0145" unicode="&#x145;" horiz-adv-x="1541" 
d="M1361 1489v-1489h-174l-812 1169h-14v-1169h-181v1489h175l814 -1172h15v1172h177zM601 -495l81 377h176l-123 -377h-134z" />
    <glyph glyph-name="uni0146" unicode="&#x146;" horiz-adv-x="1198" 
d="M329 672v-672h-172v1117h166v-174h14q87 189 326 189q175 0 276.5 -107t101.5 -315v-710h-171v698q0 131 -68 205t-188 74q-126 0 -205.5 -81t-79.5 -224zM429 -495l82 377h176l-124 -377h-134z" />
    <glyph glyph-name="uni0147" unicode="&#x147;" horiz-adv-x="1541" 
d="M1361 1489v-1489h-174l-812 1169h-14v-1169h-181v1489h175l814 -1172h15v1172h177zM620 1937l151 -203l151 203h163v-11l-236 -303h-157l-235 303v11h163z" />
    <glyph glyph-name="uni0148" unicode="&#x148;" horiz-adv-x="1198" 
d="M329 672v-672h-172v1117h166v-174h14q87 189 326 189q175 0 276.5 -107t101.5 -315v-710h-171v698q0 131 -68 205t-188 74q-126 0 -205.5 -81t-79.5 -224zM448 1565l151 -204l152 204h162v-12l-235 -302h-157l-236 302v12h163z" />
    <glyph glyph-name="uni014A" unicode="&#x14a;" horiz-adv-x="1541" 
d="M1187 0l-812 1169h-14v-1169h-181v1489h175l814 -1172h15v1172h177v-1608q0 -139 -84.5 -219.5t-211.5 -80.5q-73 0 -99 9v148q30 -6 55 -6q166 0 166 152v116z" />
    <glyph glyph-name="uni014B" unicode="&#x14b;" horiz-adv-x="1198" 
d="M329 672v-672h-172v1117h166v-174h14q87 189 326 189q175 0 276.5 -107t101.5 -315v-829q0 -140 -82 -220t-208 -80q-73 0 -99 9v145q30 -6 55 -6q163 0 163 152v817q0 131 -68 205t-188 74q-126 0 -205.5 -81t-79.5 -224z" />
    <glyph glyph-name="uni014C" unicode="&#x14c;" horiz-adv-x="1559" 
d="M1437 745q0 -174 -49 -318t-136.5 -241.5t-208.5 -151.5t-263 -54t-263.5 54t-208.5 151.5t-136.5 241.5t-49.5 318t49.5 318t136.5 241.5t208.5 151.5t263.5 54t263 -54t208.5 -151.5t136.5 -241.5t49 -318zM1263 745q0 281 -136 438.5t-347 157.5t-347 -157.5
t-136 -438.5t136 -439t347 -158t347 158t136 439zM1120 1862v-146h-681v146h681z" />
    <glyph glyph-name="uni014D" unicode="&#x14d;" horiz-adv-x="1221" 
d="M611 -23q-227 0 -366.5 158.5t-139.5 417.5q0 261 139 420t367 159t367 -159t139 -420q0 -259 -139.5 -417.5t-366.5 -158.5zM611 131q84 0 149 34t104.5 93t60 134t20.5 161t-20.5 161t-60 134.5t-105 94t-148.5 34.5t-148.5 -34.5t-105.5 -94t-60.5 -134.5t-20.5 -161
t20.5 -161t60.5 -134t105 -93t149 -34zM951 1489v-145h-680v145h680z" />
    <glyph glyph-name="uni014E" unicode="&#x14e;" horiz-adv-x="1559" 
d="M1437 745q0 -174 -49 -318t-136.5 -241.5t-208.5 -151.5t-263 -54t-263.5 54t-208.5 151.5t-136.5 241.5t-49.5 318t49.5 318t136.5 241.5t208.5 151.5t263.5 54t263 -54t208.5 -151.5t136.5 -241.5t49 -318zM1263 745q0 281 -136 438.5t-347 157.5t-347 -157.5
t-136 -438.5t136 -439t347 -158t347 158t136 439zM922 1862h160q0 -119 -82 -193.5t-220 -74.5q-136 0 -218 74.5t-82 193.5h160q0 -63 34 -103t106 -40t107 40.5t35 102.5z" />
    <glyph glyph-name="uni014F" unicode="&#x14f;" horiz-adv-x="1221" 
d="M611 -23q-227 0 -366.5 158.5t-139.5 417.5q0 261 139 420t367 159t367 -159t139 -420q0 -259 -139.5 -417.5t-366.5 -158.5zM611 131q84 0 149 34t104.5 93t60 134t20.5 161t-20.5 161t-60 134.5t-105 94t-148.5 34.5t-148.5 -34.5t-105.5 -94t-60.5 -134.5t-20.5 -161
t20.5 -161t60.5 -134t105 -93t149 -34zM753 1489h160q0 -119 -82 -193t-220 -74q-136 0 -218 74t-82 193h160q0 -62 34 -102t106 -40t107 40t35 102z" />
    <glyph glyph-name="uni0150" unicode="&#x150;" horiz-adv-x="1559" 
d="M1437 745q0 -174 -49 -318t-136.5 -241.5t-208.5 -151.5t-263 -54t-263.5 54t-208.5 151.5t-136.5 241.5t-49.5 318t49.5 318t136.5 241.5t208.5 151.5t263.5 54t263 -54t208.5 -151.5t136.5 -241.5t49 -318zM1263 745q0 281 -136 438.5t-347 157.5t-347 -157.5
t-136 -438.5t136 -439t347 -158t347 158t136 439zM823 1612l224 308h192l-264 -308h-152zM524 1612l163 308h189l-216 -308h-136z" />
    <glyph glyph-name="uni0151" unicode="&#x151;" horiz-adv-x="1221" 
d="M611 -23q-227 0 -366.5 158.5t-139.5 417.5q0 261 139 420t367 159t367 -159t139 -420q0 -259 -139.5 -417.5t-366.5 -158.5zM611 131q84 0 149 34t104.5 93t60 134t20.5 161t-20.5 161t-60 134.5t-105 94t-148.5 34.5t-148.5 -34.5t-105.5 -94t-60.5 -134.5t-20.5 -161
t20.5 -161t60.5 -134t105 -93t149 -34zM655 1239l224 309h192l-265 -309h-151zM355 1239l163 309h189l-215 -309h-137z" />
    <glyph glyph-name="uni0152" unicode="&#x152;" horiz-adv-x="1952" 
d="M780 0q-194 0 -344 93t-232 262.5t-82 389.5q0 335 181.5 539.5t476.5 204.5h1027v-160h-719v-503h672v-160h-672v-506h730v-160h-1038zM908 160v1169h-128q-217 0 -350 -160.5t-133 -423.5q0 -262 133.5 -423.5t349.5 -161.5h128z" />
    <glyph glyph-name="uni0153" unicode="&#x153;" horiz-adv-x="2027" 
d="M611 -23q-227 0 -366.5 158.5t-139.5 417.5q0 261 139 420t367 159q137 0 246 -61.5t175 -173.5q66 111 173.5 173t243.5 62q73 0 139.5 -17.5t129.5 -59.5t109 -105t74 -159.5t28 -217.5v-73h-811q6 -176 100 -272.5t248 -96.5q103 0 174.5 44t104.5 130l166 -46
q-40 -129 -158.5 -205.5t-286.5 -76.5q-146 0 -257.5 60.5t-177.5 170.5q-66 -110 -174.5 -170.5t-245.5 -60.5zM611 131q84 0 149 34t104.5 93t60 134t20.5 161t-20.5 161t-60 134.5t-105 94t-148.5 34.5t-148.5 -34.5t-105.5 -94t-60.5 -134.5t-20.5 -161t20.5 -161
t60.5 -134t105 -93t149 -34zM1118 649h636q0 144 -83.5 236t-221.5 92q-141 0 -231.5 -95.5t-99.5 -232.5z" />
    <glyph glyph-name="uni0154" unicode="&#x154;" horiz-adv-x="1309" 
d="M180 0v1489h504q128 0 226 -34t158.5 -95.5t91 -144t30.5 -182.5q0 -153 -70 -261.5t-209 -156.5l337 -615h-209l-315 583q-12 -1 -37 -1h-326v-582h-181zM361 745h320q173 0 252 74t79 214q0 296 -334 296h-317v-584zM567 1641l178 337h200l-226 -337h-152z" />
    <glyph glyph-name="uni0155" unicode="&#x155;" horiz-adv-x="762" 
d="M157 0v1117h166v-169h12q31 84 110.5 135.5t179.5 51.5q31 0 91 -3v-175q-48 12 -105 12q-122 0 -202 -74.5t-80 -187.5v-707h-172zM343 1268l178 338h200l-226 -338h-152z" />
    <glyph glyph-name="uni0156" unicode="&#x156;" horiz-adv-x="1309" 
d="M180 0v1489h504q128 0 226 -34t158.5 -95.5t91 -144t30.5 -182.5q0 -153 -70 -261.5t-209 -156.5l337 -615h-209l-315 583q-12 -1 -37 -1h-326v-582h-181zM361 745h320q173 0 252 74t79 214q0 296 -334 296h-317v-584zM502 -495l81 377h176l-123 -377h-134z" />
    <glyph glyph-name="uni0157" unicode="&#x157;" horiz-adv-x="762" 
d="M157 0v1117h166v-169h12q31 84 110.5 135.5t179.5 51.5q31 0 91 -3v-175q-48 12 -105 12q-122 0 -202 -74.5t-80 -187.5v-707h-172zM71 -495l82 377h176l-124 -377h-134z" />
    <glyph glyph-name="uni0158" unicode="&#x158;" horiz-adv-x="1309" 
d="M180 0v1489h504q128 0 226 -34t158.5 -95.5t91 -144t30.5 -182.5q0 -153 -70 -261.5t-209 -156.5l337 -615h-209l-315 583q-12 -1 -37 -1h-326v-582h-181zM361 745h320q173 0 252 74t79 214q0 296 -334 296h-317v-584zM495 1937l151 -203l151 203h163v-11l-236 -303h-157
l-235 303v11h163z" />
    <glyph glyph-name="uni0159" unicode="&#x159;" horiz-adv-x="762" 
d="M157 0v1117h166v-169h12q31 84 110.5 135.5t179.5 51.5q31 0 91 -3v-175q-48 12 -105 12q-122 0 -202 -74.5t-80 -187.5v-707h-172zM271 1565l151 -204l151 204h163v-12l-236 -302h-157l-235 302v12h163z" />
    <glyph glyph-name="uni015A" unicode="&#x15a;" horiz-adv-x="1306" 
d="M995 1117q-13 108 -105 170.5t-230 62.5q-147 0 -237.5 -69.5t-90.5 -177.5q0 -46 20 -84.5t48.5 -63.5t71 -46.5t75 -32t73.5 -21.5l151 -40q58 -15 104 -31.5t108.5 -50.5t104.5 -75.5t72 -107.5t30 -146q0 -187 -144 -308.5t-394 -121.5q-237 0 -380 112t-156 298h187
q11 -121 109 -184t240 -63q157 0 260 74.5t103 195.5q0 43 -16.5 78.5t-42 60t-66.5 46t-79.5 35t-91.5 28.5l-184 52q-378 109 -378 387q0 122 68 218t183.5 147t257.5 51q215 0 356 -111.5t147 -281.5h-174zM573 1641l178 337h200l-227 -337h-151z" />
    <glyph glyph-name="uni015B" unicode="&#x15b;" horiz-adv-x="1070" 
d="M948 867l-154 -44q-62 160 -241 160q-103 0 -171 -47t-68 -119q0 -63 45 -100t147 -62l166 -41q297 -73 297 -303q0 -146 -121.5 -240t-315.5 -94q-173 0 -283.5 75t-140.5 216l163 40q47 -180 258 -180q117 0 189.5 50.5t72.5 124.5q0 119 -166 157l-186 43
q-296 69 -296 306q0 141 116 232t294 91q305 0 395 -265zM474 1268l178 338h200l-227 -338h-151z" />
    <glyph glyph-name="uni015C" unicode="&#x15c;" horiz-adv-x="1306" 
d="M995 1117q-13 108 -105 170.5t-230 62.5q-147 0 -237.5 -69.5t-90.5 -177.5q0 -46 20 -84.5t48.5 -63.5t71 -46.5t75 -32t73.5 -21.5l151 -40q58 -15 104 -31.5t108.5 -50.5t104.5 -75.5t72 -107.5t30 -146q0 -187 -144 -308.5t-394 -121.5q-237 0 -380 112t-156 298h187
q11 -121 109 -184t240 -63q157 0 260 74.5t103 195.5q0 43 -16.5 78.5t-42 60t-66.5 46t-79.5 35t-91.5 28.5l-184 52q-378 109 -378 387q0 122 68 218t183.5 147t257.5 51q215 0 356 -111.5t147 -281.5h-174zM803 1623l-151 204l-152 -204h-163v12l236 302h157l236 -302
v-12h-163z" />
    <glyph glyph-name="uni015D" unicode="&#x15d;" horiz-adv-x="1070" 
d="M948 867l-154 -44q-62 160 -241 160q-103 0 -171 -47t-68 -119q0 -63 45 -100t147 -62l166 -41q297 -73 297 -303q0 -146 -121.5 -240t-315.5 -94q-173 0 -283.5 75t-140.5 216l163 40q47 -180 258 -180q117 0 189.5 50.5t72.5 124.5q0 119 -166 157l-186 43
q-296 69 -296 306q0 141 116 232t294 91q305 0 395 -265zM704 1251l-151 204l-152 -204h-162v12l235 302h157l236 -302v-12h-163z" />
    <glyph glyph-name="uni015E" unicode="&#x15e;" horiz-adv-x="1306" 
d="M995 1117q-13 108 -105 170.5t-230 62.5q-147 0 -237.5 -69.5t-90.5 -177.5q0 -46 20 -84.5t48.5 -63.5t71 -46.5t75 -32t73.5 -21.5l151 -40q58 -15 104 -31.5t108.5 -50.5t104.5 -75.5t72 -107.5t30 -146q0 -174 -126 -293t-348 -135l-6 -28q65 -10 108 -52t43 -120
q0 -96 -79 -154t-226 -58l-6 113q157 0 157 93q0 48 -34.5 67t-122.5 26l23 114q-203 19 -324 128t-133 279h187q11 -121 109 -184t240 -63q157 0 260 74.5t103 195.5q0 43 -16.5 78.5t-42 60t-66.5 46t-79.5 35t-91.5 28.5l-184 52q-378 109 -378 387q0 122 68 218
t183.5 147t257.5 51q215 0 356 -111.5t147 -281.5h-174z" />
    <glyph glyph-name="uni015F" unicode="&#x15f;" horiz-adv-x="1070" 
d="M948 867l-154 -44q-62 160 -241 160q-103 0 -171 -47t-68 -119q0 -63 45 -100t147 -62l166 -41q297 -73 297 -303q0 -131 -99.5 -221.5t-263.5 -109.5l-7 -32q65 -10 108.5 -52t43.5 -120q0 -96 -79.5 -154t-226.5 -58l-6 113q157 0 157 93q0 48 -34.5 67t-122.5 26
l24 117q-144 14 -236 87.5t-119 200.5l163 40q47 -180 258 -180q117 0 189.5 50.5t72.5 124.5q0 119 -166 157l-186 43q-296 69 -296 306q0 141 116 232t294 91q305 0 395 -265z" />
    <glyph glyph-name="uni0160" unicode="&#x160;" horiz-adv-x="1306" 
d="M995 1117q-13 108 -105 170.5t-230 62.5q-147 0 -237.5 -69.5t-90.5 -177.5q0 -46 20 -84.5t48.5 -63.5t71 -46.5t75 -32t73.5 -21.5l151 -40q58 -15 104 -31.5t108.5 -50.5t104.5 -75.5t72 -107.5t30 -146q0 -187 -144 -308.5t-394 -121.5q-237 0 -380 112t-156 298h187
q11 -121 109 -184t240 -63q157 0 260 74.5t103 195.5q0 43 -16.5 78.5t-42 60t-66.5 46t-79.5 35t-91.5 28.5l-184 52q-378 109 -378 387q0 122 68 218t183.5 147t257.5 51q215 0 356 -111.5t147 -281.5h-174zM500 1937l152 -203l151 203h163v-11l-236 -303h-157l-236 303
v11h163z" />
    <glyph glyph-name="uni0161" unicode="&#x161;" horiz-adv-x="1070" 
d="M948 867l-154 -44q-62 160 -241 160q-103 0 -171 -47t-68 -119q0 -63 45 -100t147 -62l166 -41q297 -73 297 -303q0 -146 -121.5 -240t-315.5 -94q-173 0 -283.5 75t-140.5 216l163 40q47 -180 258 -180q117 0 189.5 50.5t72.5 124.5q0 119 -166 157l-186 43
q-296 69 -296 306q0 141 116 232t294 91q305 0 395 -265zM401 1565l152 -204l151 204h163v-12l-236 -302h-157l-235 302v12h162z" />
    <glyph glyph-name="uni0162" unicode="&#x162;" horiz-adv-x="1314" 
d="M99 1329v160h1117v-160h-468v-1329h-2l-10 -52q65 -10 108 -52t43 -120q0 -96 -79 -154t-226 -58l-6 113q157 0 157 93q0 48 -34.5 67t-122.5 26l28 137h-37v1329h-468z" />
    <glyph glyph-name="uni0163" unicode="&#x163;" horiz-adv-x="744" 
d="M643 1117v-145h-239v-652q0 -99 40.5 -134t108.5 -35q30 0 75 9l35 -154q-48 -17 -99 -20l-8 -38q65 -10 108 -52t43 -120q0 -96 -79.5 -154t-226.5 -58l-5 113q157 0 157 93q0 48 -34.5 67t-122.5 26l28 141q-84 29 -137.5 97.5t-53.5 171.5v699h-169v145h169v268h171
v-268h239z" />
    <glyph glyph-name="uni0164" unicode="&#x164;" horiz-adv-x="1314" 
d="M99 1329v160h1117v-160h-468v-1329h-181v1329h-468zM506 1937l151 -203l152 203h163v-11l-236 -303h-157l-236 303v11h163z" />
    <glyph glyph-name="uni0165" unicode="&#x165;" horiz-adv-x="744" 
d="M643 1117v-145h-239v-652q0 -99 40.5 -134t108.5 -35q30 0 75 9l35 -154q-54 -21 -128 -21q-56 0 -108.5 18t-96.5 52.5t-70.5 91t-26.5 126.5v699h-169v145h169v268h171v-268h239zM528 1255v377h176l-51 -377h-125z" />
    <glyph glyph-name="uni0166" unicode="&#x166;" horiz-adv-x="1314" 
d="M99 1329v160h1117v-160h-468v-494h229v-134h-229v-701h-181v701h-230v134h230v494h-468z" />
    <glyph glyph-name="uni0167" unicode="&#x167;" horiz-adv-x="744" 
d="M64 611v134h169v227h-169v145h169v268h171v-268h239v-145h-239v-227h239v-134h-239v-291q0 -99 40.5 -134t108.5 -35q30 0 75 9l35 -154q-54 -21 -128 -21q-56 0 -108.5 18t-96.5 52.5t-70.5 91t-26.5 126.5v338h-169z" />
    <glyph glyph-name="uni0168" unicode="&#x168;" horiz-adv-x="1518" 
d="M1158 1489h180v-986q0 -232 -159.5 -380.5t-419.5 -148.5t-419.5 148.5t-159.5 380.5v986h181v-971q0 -167 107 -271t291 -104t291.5 104.5t107.5 270.5v971zM535 1623l-134 6q0 110 63.5 181.5t158.5 71.5q56 0 134 -46.5t130 -46.5q41 0 70 32.5t29 78.5l131 -12
q0 -111 -62.5 -179t-158.5 -68q-45 0 -82.5 14.5t-59 32t-54 32t-69.5 14.5q-41 0 -68.5 -32.5t-27.5 -78.5z" />
    <glyph glyph-name="uni0169" unicode="&#x169;" horiz-adv-x="1189" 
d="M861 457v660h172v-1117h-172v189h-12q-42 -91 -126.5 -147.5t-204.5 -56.5q-163 0 -262 107.5t-99 314.5v710h172v-698q0 -121 68 -194.5t176 -73.5q50 0 99.5 19t92.5 55t69.5 96.5t26.5 135.5zM372 1251l-133 6q0 110 63 181.5t158 71.5q56 0 134 -46.5t130 -46.5
q41 0 70 32t29 78l131 -11q0 -111 -63 -179.5t-158 -68.5q-45 0 -82.5 14.5t-59 32t-54 32t-69.5 14.5q-41 0 -68.5 -32t-27.5 -78z" />
    <glyph glyph-name="uni016A" unicode="&#x16a;" horiz-adv-x="1518" 
d="M1158 1489h180v-986q0 -232 -159.5 -380.5t-419.5 -148.5t-419.5 148.5t-159.5 380.5v986h181v-971q0 -167 107 -271t291 -104t291.5 104.5t107.5 270.5v971zM1100 1862v-146h-681v146h681z" />
    <glyph glyph-name="uni016B" unicode="&#x16b;" horiz-adv-x="1189" 
d="M861 457v660h172v-1117h-172v189h-12q-42 -91 -126.5 -147.5t-204.5 -56.5q-163 0 -262 107.5t-99 314.5v710h172v-698q0 -121 68 -194.5t176 -73.5q50 0 99.5 19t92.5 55t69.5 96.5t26.5 135.5zM937 1489v-145h-681v145h681z" />
    <glyph glyph-name="uni016C" unicode="&#x16c;" horiz-adv-x="1518" 
d="M1158 1489h180v-986q0 -232 -159.5 -380.5t-419.5 -148.5t-419.5 148.5t-159.5 380.5v986h181v-971q0 -167 107 -271t291 -104t291.5 104.5t107.5 270.5v971zM902 1862h160q0 -119 -82.5 -193.5t-220.5 -74.5q-136 0 -217.5 74.5t-81.5 193.5h160q0 -63 33.5 -103
t105.5 -40t107.5 40.5t35.5 102.5z" />
    <glyph glyph-name="uni016D" unicode="&#x16d;" horiz-adv-x="1189" 
d="M861 457v660h172v-1117h-172v189h-12q-42 -91 -126.5 -147.5t-204.5 -56.5q-163 0 -262 107.5t-99 314.5v710h172v-698q0 -121 68 -194.5t176 -73.5q50 0 99.5 19t92.5 55t69.5 96.5t26.5 135.5zM739 1489h160q0 -119 -82.5 -193t-220.5 -74q-136 0 -217.5 74t-81.5 193
h160q0 -63 33.5 -102.5t105.5 -39.5t107.5 40t35.5 102z" />
    <glyph glyph-name="uni016E" unicode="&#x16e;" horiz-adv-x="1518" 
d="M1158 1489h180v-986q0 -232 -159.5 -380.5t-419.5 -148.5t-419.5 148.5t-159.5 380.5v986h181v-971q0 -167 107 -271t291 -104t291.5 104.5t107.5 270.5v971zM759 1591q-87 0 -149 62t-62 149t62 149t149 62t149 -62t62 -149t-62 -149t-149 -62zM759 1696q45 0 75 30.5
t30 75.5t-30 75.5t-75 30.5t-74.5 -30.5t-29.5 -75.5t29.5 -75.5t74.5 -30.5z" />
    <glyph glyph-name="uni016F" unicode="&#x16f;" horiz-adv-x="1189" 
d="M861 457v660h172v-1117h-172v189h-12q-42 -91 -126.5 -147.5t-204.5 -56.5q-163 0 -262 107.5t-99 314.5v710h172v-698q0 -121 68 -194.5t176 -73.5q50 0 99.5 19t92.5 55t69.5 96.5t26.5 135.5zM596 1242q-111 0 -187.5 71t-76.5 176q0 106 77 181t187 75t186 -75
t76 -181q0 -105 -75.5 -176t-186.5 -71zM596 1353q59 0 99.5 41t40.5 95q0 56 -40.5 99.5t-99.5 43.5t-99 -43t-40 -100q0 -54 40 -95t99 -41z" />
    <glyph glyph-name="uni0170" unicode="&#x170;" horiz-adv-x="1518" 
d="M1158 1489h180v-986q0 -232 -159.5 -380.5t-419.5 -148.5t-419.5 148.5t-159.5 380.5v986h181v-971q0 -167 107 -271t291 -104t291.5 104.5t107.5 270.5v971zM803 1612l224 308h192l-265 -308h-151zM503 1612l163 308h189l-215 -308h-137z" />
    <glyph glyph-name="uni0171" unicode="&#x171;" horiz-adv-x="1189" 
d="M861 457v660h172v-1117h-172v189h-12q-42 -91 -126.5 -147.5t-204.5 -56.5q-163 0 -262 107.5t-99 314.5v710h172v-698q0 -121 68 -194.5t176 -73.5q50 0 99.5 19t92.5 55t69.5 96.5t26.5 135.5zM640 1239l224 309h192l-265 -309h-151zM340 1239l163 309h189l-215 -309
h-137z" />
    <glyph glyph-name="uni0172" unicode="&#x172;" horiz-adv-x="1518" 
d="M1158 1489h180v-986q0 -204 -125.5 -345.5t-338.5 -174.5q-67 -52 -104 -99.5t-37 -101.5q0 -35 17 -52.5t59 -17.5q56 0 99 26l11 -128q-69 -43 -154 -43q-92 0 -149 50.5t-57 141.5q0 123 120 219q-227 23 -363 168t-136 357v986h181v-971q0 -167 107 -271t291 -104
t291.5 104.5t107.5 270.5v971z" />
    <glyph glyph-name="uni0173" unicode="&#x173;" horiz-adv-x="1189" 
d="M861 457v660h172v-1117q-80 -59 -124.5 -110.5t-44.5 -110.5q0 -35 17 -52.5t59 -17.5q56 0 99 26l11 -128q-69 -43 -154 -43q-92 0 -149.5 50.5t-57.5 141.5q0 147 172 256v177h-12q-42 -91 -126.5 -147.5t-204.5 -56.5q-163 0 -262 107.5t-99 314.5v710h172v-698
q0 -121 68 -194.5t176 -73.5q50 0 99.5 19t92.5 55t69.5 96.5t26.5 135.5z" />
    <glyph glyph-name="uni0174" unicode="&#x174;" horiz-adv-x="1943" 
d="M451 0l-407 1489h183l311 -1213h15l317 1213h203l318 -1213h14l311 1213h184l-408 -1489h-186l-329 1187h-11l-329 -1187h-186zM1123 1623l-151 204l-152 -204h-163v12l236 302h157l236 -302v-12h-163z" />
    <glyph glyph-name="uni0175" unicode="&#x175;" horiz-adv-x="1664" 
d="M410 0l-340 1117h180l242 -855h11l239 855h183l236 -852h11l242 852h180l-340 -1117h-169l-244 858h-18l-244 -858h-169zM983 1251l-151 204l-151 -204h-163v12l235 302h158l235 -302v-12h-163z" />
    <glyph glyph-name="uni0176" unicode="&#x176;" horiz-adv-x="1361" 
d="M52 1489h207l413 -695h17l414 695h206l-538 -875v-614h-180v614zM832 1623l-151 204l-152 -204h-162v12l235 302h157l236 -302v-12h-163z" />
    <glyph glyph-name="uni0177" unicode="&#x177;" horiz-adv-x="1140" 
d="M268 -419q-87 0 -125 20l43 152q101 -26 160.5 3.5t104.5 150.5l32 87l-413 1123h186l308 -890h12l308 890h187l-475 -1280q-96 -256 -328 -256zM721 1251l-151 204l-151 -204h-163v12l236 302h157l235 -302v-12h-163z" />
    <glyph glyph-name="uni0178" unicode="&#x178;" horiz-adv-x="1361" 
d="M52 1489h207l413 -695h17l414 695h206l-538 -875v-614h-180v614zM471 1676q-46 0 -81 35t-35 81q0 49 34.5 82.5t81.5 33.5q50 0 83.5 -33t33.5 -83q0 -47 -34 -81.5t-83 -34.5zM890 1676q-46 0 -81 35t-35 81q0 49 34.5 82.5t81.5 33.5q50 0 83.5 -33t33.5 -83
q0 -47 -34 -81.5t-83 -34.5z" />
    <glyph glyph-name="uni0179" unicode="&#x179;" horiz-adv-x="1280" 
d="M131 0v131l803 1198h-812v160h1027v-130l-803 -1199h812v-160h-1027zM561 1641l178 337h201l-227 -337h-152z" />
    <glyph glyph-name="uni017A" unicode="&#x17a;" horiz-adv-x="1108" 
d="M125 0v131l634 814v12h-614v160h835v-137l-616 -808v-12h637v-160h-876zM474 1268l178 338h200l-227 -338h-151z" />
    <glyph glyph-name="uni017B" unicode="&#x17b;" horiz-adv-x="1280" 
d="M131 0v131l803 1198h-812v160h1027v-130l-803 -1199h812v-160h-1027zM640 1676q-50 0 -86 34t-36 82t36 82t86 34t86 -34t36 -82t-36 -82t-86 -34z" />
    <glyph glyph-name="uni017C" unicode="&#x17c;" horiz-adv-x="1108" 
d="M125 0v131l634 814v12h-614v160h835v-137l-616 -808v-12h637v-160h-876zM553 1303q-50 0 -86 34.5t-36 82.5t36 82t86 34t86 -34t36 -82t-36 -82.5t-86 -34.5z" />
    <glyph glyph-name="uni017D" unicode="&#x17d;" horiz-adv-x="1280" 
d="M131 0v131l803 1198h-812v160h1027v-130l-803 -1199h812v-160h-1027zM489 1937l151 -203l151 203h163v-11l-235 -303h-158l-235 303v11h163z" />
    <glyph glyph-name="uni017E" unicode="&#x17e;" horiz-adv-x="1108" 
d="M125 0v131l634 814v12h-614v160h835v-137l-616 -808v-12h637v-160h-876zM401 1565l152 -204l151 204h163v-12l-236 -302h-157l-235 302v12h162z" />
    <glyph glyph-name="uni017F" unicode="&#x17f;" horiz-adv-x="546" 
d="M230 0h-201v1194q0 175 91.5 269.5t254.5 94.5q61 0 143 -21l-23 -148q-34 9 -88 9q-86 0 -131.5 -53.5t-45.5 -150.5v-1194z" />
    <glyph glyph-name="uni0180" unicode="&#x180;" horiz-adv-x="1271" 
d="M180 0v1213h-232v134h232v142h172v-142h236v-134h-236v-273h15q1 2 13.5 21.5t18 26.5t20 27t27 29.5t32 26t40 25t47 18.5t58 14t66.5 4q213 0 345.5 -157t132.5 -419q0 -264 -132 -421.5t-343 -157.5q-58 0 -108 13.5t-82 33t-59 46.5t-42 49t-29 44q-1 3 -2.5 5
t-2.5 4h-21v-172h-166zM349 559q0 -194 84 -311t236 -117q104 0 179 58t111 153t36 217q0 120 -35.5 213t-110 149t-180.5 56q-154 0 -237 -113t-83 -305z" />
    <glyph glyph-name="uni0181" unicode="&#x181;" horiz-adv-x="1643" 
d="M492 0v1329h-93q-34 0 -58 -10t-38 -26t-22 -41t-10.5 -48.5t-2.5 -54.5v-55h-169v99q0 127 79 211.5t218 84.5h616q223 0 340 -111t117 -284q0 -245 -241 -311v-15q53 -3 105 -29t96 -71t71 -116t27 -156q0 -86 -28.5 -156.5t-87 -125t-155.5 -84.5t-226 -30h-538z
M672 160h358q167 0 246.5 65t79.5 171q0 117 -87.5 199.5t-229.5 82.5h-367v-518zM672 835h335q125 0 207.5 71.5t82.5 187.5q0 104 -71.5 169.5t-213.5 65.5h-340v-494z" />
    <glyph glyph-name="uni0182" unicode="&#x182;" horiz-adv-x="1338" 
d="M180 0v1489h899v-160h-718v-465h378q237 0 365.5 -114t128.5 -311q0 -199 -129.5 -319t-364.5 -120h-559zM361 157h378q146 0 231.5 84.5t85.5 200.5q0 112 -84.5 187t-232.5 75h-378v-547z" />
    <glyph glyph-name="uni0183" unicode="&#x183;" horiz-adv-x="1271" 
d="M1018 1489v-160h-666v-389h15q1 2 13.5 21.5t18 26.5t20 27t27 29.5t32 26t40 25t47 18.5t58 14t66.5 4q213 0 345.5 -157t132.5 -419q0 -264 -132 -421.5t-343 -157.5q-58 0 -108 13.5t-82 33t-59 46.5t-42 49t-29 44q-1 3 -2.5 5t-2.5 4h-21v-172h-166v1489h838z
M349 559q0 -194 84 -311t236 -117q104 0 179 58t111 153t36 217q0 120 -35.5 213t-110 149t-180.5 56q-154 0 -237 -113t-83 -305z" />
    <glyph glyph-name="uni0184" unicode="&#x184;" horiz-adv-x="1463" 
d="M550 1489v-625h378q237 0 366 -114t129 -311q0 -199 -130 -319t-365 -120h-559v1329h-349v160h530zM550 704v-547h378q146 0 231.5 84.5t85.5 200.5q0 112 -84.5 187t-232.5 75h-378z" />
    <glyph glyph-name="uni0185" unicode="&#x185;" horiz-adv-x="1291" 
d="M239 1536h46v-47h140v-549h14q0 1 13 21.5t18 27t20.5 26.5t27.5 29.5t32 26t40.5 25t47 18.5t58 14t66.5 4q213 0 345 -157t132 -419q0 -264 -131.5 -421.5t-342.5 -157.5q-195 0 -299 152q-8 13 -22 35l-5 8h-20v-172h-166v1047h-14l-163 204v81zM1068 559
q0 120 -35.5 213t-110 149t-180.5 56q-154 0 -237 -113t-83 -305q0 -194 84 -311t236 -117q104 0 179 58t111 153t36 217z" />
    <glyph glyph-name="uni0186" unicode="&#x186;" horiz-adv-x="1489" 
d="M111 465h180q32 -150 148.5 -233.5t270.5 -83.5q211 0 347 158t136 439t-136 438.5t-347 157.5q-154 0 -270.5 -83.5t-148.5 -233.5h-180q41 225 205.5 355.5t393.5 130.5q142 0 263 -54t208.5 -151.5t136.5 -241.5t49 -318t-49 -318t-136.5 -241.5t-208.5 -151.5
t-263 -54q-229 0 -393.5 130t-205.5 355z" />
    <glyph glyph-name="uni0187" unicode="&#x187;" horiz-adv-x="1579" 
d="M1379 1024h-180q-32 150 -148.5 233.5t-270.5 83.5q-211 0 -347 -157.5t-136 -438.5t136 -439t347 -158q154 0 270.5 83.5t148.5 233.5h180q-41 -225 -205.5 -355t-393.5 -130q-142 0 -263.5 54t-208.5 151.5t-136.5 241.5t-49.5 318t49.5 318t136.5 241.5t208.5 151.5
t263.5 54q133 0 248.5 -46.5t198.5 -133.5q31 86 103.5 133t167.5 47q73 0 99 -9v-145q-25 5 -55 5q-163 0 -163 -151v-186z" />
    <glyph glyph-name="uni0188" unicode="&#x188;" horiz-adv-x="1250" 
d="M1050 783h-171q-21 83 -91 138.5t-177 55.5q-151 0 -243 -114.5t-92 -303.5q0 -195 91 -311.5t244 -116.5q101 0 172.5 52t95.5 143h171q-22 -153 -140 -251t-299 -98q-232 0 -369 160.5t-137 415.5q0 257 138.5 418t364.5 161q170 0 289 -88q30 88 102.5 136t169.5 48
q73 0 99 -9v-146q-30 6 -55 6q-163 0 -163 -151v-145z" />
    <glyph glyph-name="uni0189" unicode="&#x189;" horiz-adv-x="1472" 
d="M640 0h-460v701h-229v134h229v654h480q324 0 507 -196.5t183 -544.5q0 -351 -186 -549.5t-524 -198.5zM361 160h267q271 0 409 154.5t138 433.5q0 275 -134 428t-392 153h-288v-494h230v-134h-230v-541z" />
    <glyph glyph-name="uni018A" unicode="&#x18a;" horiz-adv-x="1794" 
d="M99 1094v99q0 127 79 211.5t218 84.5h587q324 0 507 -196.5t183 -544.5q0 -351 -186 -549.5t-524 -198.5h-460v1329h-104q-34 0 -58 -10t-38 -26t-22 -41t-10.5 -48.5t-2.5 -54.5v-55h-169zM684 160h267q271 0 409 154.5t138 433.5q0 275 -134 428t-392 153h-288v-1169z
" />
    <glyph glyph-name="uni018B" unicode="&#x18b;" horiz-adv-x="1291" 
d="M1172 0h-555q-235 0 -366.5 120t-131.5 319q0 198 131 314.5t367 116.5h349v419h-690v168h896v-1457zM966 166v535h-349q-147 0 -217.5 -71.5t-70.5 -187.5q0 -119 71 -197.5t217 -78.5h349z" />
    <glyph glyph-name="uni018C" unicode="&#x18c;" horiz-adv-x="1271" 
d="M253 1489h838v-1489h-166v172h-20q-45 -72 -79 -105q-95 -90 -247 -90q-211 0 -342.5 157.5t-131.5 421.5q0 262 132 419t345 157q35 0 66.5 -4t58 -14t47 -18.5t40.5 -25t32 -26t27.5 -29.5t20.5 -26.5t18 -27t13 -21.5h14v389h-666v160zM922 559q0 192 -83 305
t-237 113q-106 0 -180.5 -56t-110 -149t-35.5 -213q0 -122 36 -217t111 -153t179 -58q152 0 236 117t84 311z" />
    <glyph glyph-name="uni018D" unicode="&#x18d;" horiz-adv-x="1105" 
d="M899 -375h-710v154h442q-17 23 -81.5 84.5t-113.5 101.5q-182 157 -274 292t-92 293v20q0 253 129 407.5t354 154.5q226 0 356 -154.5t130 -407.5v-20q0 -184 -121 -316t-330 -158q-20 -3 -35 -3q31 -29 111.5 -101t136 -125t98.5 -103v-119zM838 550v20
q0 183 -70.5 292.5t-214.5 109.5q-142 0 -213.5 -110t-71.5 -292v-20q0 -111 52 -201t128 -140q32 -11 87 -11q148 0 225.5 101t77.5 251z" />
    <glyph glyph-name="uni018E" unicode="&#x18e;" horiz-adv-x="1224" 
d="M1044 1489v-1489h-899v160h719v503h-672v160h672v506h-730v160h910z" />
    <glyph glyph-name="uni018F" unicode="&#x18f;" horiz-adv-x="1477" 
d="M717 -20q-264 0 -422 177t-158 492v125h998v26q0 258 -119.5 398t-346.5 140q-174 0 -343 -75l-50 151q67 42 179 69t226 27q304 0 483.5 -191.5t179.5 -518.5v-116q0 -201 -76 -360.5t-219.5 -251.5t-331.5 -92zM1132 617h-789v-32q0 -211 99.5 -324t271.5 -113
q184 0 293.5 126.5t124.5 342.5z" />
    <glyph glyph-name="uni0190" unicode="&#x190;" horiz-adv-x="1291" 
d="M809 800v-125h-163q-317 0 -317 -265q0 -135 86 -200t226 -65q157 0 241 73t84 186h206q0 -108 -43 -191t-117.5 -133t-167.5 -75t-201 -25q-107 0 -199 24.5t-166 73t-116.5 130t-42.5 188.5q0 275 258 365q-111 47 -172.5 134t-61.5 206q0 187 143.5 298t363.5 111
q223 0 362.5 -109.5t139.5 -292.5h-207q0 105 -79 169t-216 64q-145 0 -223 -67t-78 -180q0 -107 73 -180t224 -73h163v-41z" />
    <glyph glyph-name="uni0191" unicode="&#x191;" horiz-adv-x="1201" 
d="M180 -116v1605h893v-160h-712v-503h646v-160h-646v-785q0 -145 -87 -222.5t-254 -77.5q-11 0 -55 9v148q30 -6 55 -6q160 0 160 152z" />
    <glyph glyph-name="uni0192" unicode="&#x192;" horiz-adv-x="791" 
d="M663 1082v-148h-203v-1007q0 -168 -82 -257t-235 -89q-67 0 -114 15l15 157q27 -12 99 -12q60 0 98 50t38 136v1007h-180v148h180v111q0 172 86.5 267.5t225.5 95.5q105 0 171 -26l-43 -157q-40 12 -82 12q-177 0 -177 -192v-111h203z" />
    <glyph glyph-name="uni0193" unicode="&#x193;" horiz-adv-x="1582" 
d="M1199 1024q-48 150 -157.5 233.5t-267.5 83.5q-100 0 -186.5 -39.5t-151.5 -113t-102 -187.5t-37 -256q0 -282 137 -439.5t351 -157.5q191 0 310.5 119t123.5 318h-393v160h567v-160q0 -274 -169.5 -439.5t-438.5 -165.5q-299 0 -481 207t-182 558q0 349 181 557t471 208
q139 0 258 -49.5t204 -140.5q65 161 265 161q73 0 99 -9v-145q-25 5 -55 5q-163 0 -163 -151v-142l3 -15h-186z" />
    <glyph glyph-name="uni0194" unicode="&#x194;" horiz-adv-x="1291" 
d="M20 1489h195l429 -1015l432 1015h195l-534 -1237q31 -73 71 -159t59.5 -128t34 -86.5t14.5 -76.5q0 -117 -71 -180.5t-199 -63.5t-199.5 63.5t-71.5 180.5q0 34 14.5 80t32.5 87.5t59 130.5t72 161zM647 44q-71 -161 -81 -199q-7 -25 -7 -43q0 -36 24 -58.5t63 -22.5
q38 0 62.5 23.5t24.5 57.5q0 23 -12 60.5t-25 68.5t-49 113z" />
    <glyph glyph-name="uni0195" unicode="&#x195;" horiz-adv-x="1937" 
d="M157 0v1489h172v-546h14q85 189 329 189q177 0 279 -106.5t102 -315.5v-268q0 -75 14 -132.5t35.5 -90.5t51 -53.5t56 -27.5t55.5 -7q56 0 105.5 27t94 90t76 157t50 237.5t18.5 323.5v151h171v-151q0 -205 -26.5 -370.5t-73 -279t-113 -190t-144.5 -111.5t-169 -35
q-165 0 -269 116t-104 346v256q0 132 -68.5 205.5t-189.5 73.5q-130 0 -212 -81t-82 -224v-672h-172z" />
    <glyph glyph-name="uni0196" unicode="&#x196;" horiz-adv-x="529" 
d="M157 1489h172v-1198q0 -84 19 -115.5t74 -30.5q35 1 73 12l34 -148q-60 -18 -128 -18q-120 0 -182 66t-62 187v1245z" />
    <glyph glyph-name="uni0197" unicode="&#x197;" horiz-adv-x="541" 
d="M361 1489v-654h230v-134h-230v-701h-181v701h-229v134h229v654h181z" />
    <glyph glyph-name="uni0198" unicode="&#x198;" horiz-adv-x="1376" 
d="M180 0v1489h181v-738h17l591 651q56 62 125.5 88t137 15t127.5 -53l-73 -134q-103 66 -204 -44l-425 -457l626 -817h-218l-518 692l-186 -209v-483h-181z" />
    <glyph glyph-name="uni0199" unicode="&#x199;" horiz-adv-x="1090" 
d="M855 0l-392 515l-134 -146v-369h-172v1210q0 140 82 220t209 80q73 0 99 -9v-145q-25 5 -55 5q-163 0 -163 -151v-596h14l454 503h218l-439 -477l486 -640h-207z" />
    <glyph glyph-name="uni019A" unicode="&#x19a;" horiz-adv-x="485" 
d="M329 1489v-654h234v-134h-234v-701h-172v701h-234v134h234v654h172z" />
    <glyph glyph-name="uni019B" unicode="&#x19b;" horiz-adv-x="1291" 
d="M687 1420v-172l-48 -18l385 -994q18 -48 38.5 -65t54.5 -17h35l6 -160q-28 -11 -79 -11q-50 0 -81 6t-63 26.5t-57.5 60.5t-51.5 107l-222 573l-272 -756h-221l389 1023l-54 134l-251 -95v169l188 72q-33 47 -91 47q-35 0 -46 -3v151q34 12 99 12q94 0 148 -32.5
t87 -98.5z" />
    <glyph glyph-name="uni019C" unicode="&#x19c;" horiz-adv-x="1850" 
d="M868 175q-103 -195 -347 -195q-84 0 -147 24t-110.5 77t-72.5 143.5t-25 217.5v1047h201v-1047q0 -297 186 -297q224 0 276 219q-3 36 -3 78v1047h198v-1047q0 -86 16 -146.5t44 -92t59.5 -45t69.5 -13.5q221 0 274 219v1125h197v-1489h-189l-5 118q-105 -138 -309 -138
q-235 0 -313 195z" />
    <glyph glyph-name="uni019D" unicode="&#x19d;" horiz-adv-x="1550" 
d="M1370 1489v-1489h-174l-812 1169h-15v-1288q0 -139 -84.5 -219.5t-211.5 -80.5q-73 0 -99 9v148q30 -6 55 -6q160 0 160 152v1605h175l814 -1172h15v1172h177z" />
    <glyph glyph-name="uni019E" unicode="&#x19e;" horiz-adv-x="1198" 
d="M329 672v-672h-172v1117h166v-174h14q87 189 326 189q176 0 277 -107t101 -315v-1129h-171v1117q0 131 -68 205t-188 74q-126 0 -205.5 -81t-79.5 -224z" />
    <glyph glyph-name="uni019F" unicode="&#x19f;" horiz-adv-x="1559" 
d="M1437 745q0 -174 -49 -318t-136.5 -241.5t-208.5 -151.5t-263 -54t-263.5 54t-208.5 151.5t-136.5 241.5t-49.5 318t49.5 318t136.5 241.5t208.5 151.5t263.5 54t263 -54t208.5 -151.5t136.5 -241.5t49 -318zM1260 825q-20 245 -153 380.5t-327 135.5t-327 -135.5
t-153 -380.5h960zM1260 665h-960q20 -245 153 -381t327 -136t327 136t153 381z" />
    <glyph glyph-name="uni01A0" unicode="&#x1a0;" horiz-adv-x="1585" 
d="M1385 1597h171q0 -313 -235 -388q116 -193 116 -464q0 -174 -49 -318t-136.5 -241.5t-208.5 -151.5t-263 -54t-263.5 54t-208.5 151.5t-136.5 241.5t-49.5 318t49.5 318t136.5 241.5t208.5 151.5t263.5 54q266 0 443 -175q162 33 162 262zM1263 745q0 281 -136 438.5
t-347 157.5t-347 -157.5t-136 -438.5t136 -439t347 -158t347 158t136 439z" />
    <glyph glyph-name="uni01A1" unicode="&#x1a1;" horiz-adv-x="1224" 
d="M1065 1201h160q0 -268 -176 -336q68 -134 68 -312q0 -259 -139.5 -417.5t-366.5 -158.5t-366.5 158.5t-139.5 417.5q0 261 139 420t367 159q224 0 364 -157q54 22 72 76t18 150zM611 131q84 0 149 34t104.5 93t60 134t20.5 161t-20.5 161t-60 134.5t-105 94t-148.5 34.5
t-148.5 -34.5t-105.5 -94t-60.5 -134.5t-20.5 -161t20.5 -161t60.5 -134t105 -93t149 -34z" />
    <glyph glyph-name="uni01A2" unicode="&#x1a2;" horiz-adv-x="1768" 
d="M1588 1489v-1908h-200v1711l-143 -52v-1042q-66 -102 -200.5 -160t-299.5 -58q-292 0 -457.5 187.5t-165.5 510.5v134q0 328 169.5 513t470.5 185q117 0 222 -34.5t181 -95.5l269 109h154zM329 806v-128q0 -255 108.5 -394t318.5 -139q195 0 291 105v986
q-43 49 -119.5 77t-168.5 28q-212 0 -321 -134t-109 -395v-6z" />
    <glyph glyph-name="uni01A3" unicode="&#x1a3;" horiz-adv-x="1291" 
d="M1222 1117v-1536h-198v1277l-122 -72v-649q-133 -157 -355 -157q-114 0 -206.5 44t-150.5 119t-89 172t-31 206v40q0 121 30 223.5t89 180.5t153 122.5t214 44.5q192 0 312 -117l197 102h157zM556 140q77 0 145 43v742q-62 47 -151 47q-79 0 -135 -33.5t-86.5 -93.5
t-44 -129.5t-13.5 -154.5v-40q0 -179 76.5 -280t208.5 -101z" />
    <glyph glyph-name="uni01A4" unicode="&#x1a4;" horiz-adv-x="1611" 
d="M268 1094h-169v99q0 127 79 211.5t218 84.5h599q128 0 226.5 -36.5t158.5 -101t90.5 -148.5t30.5 -185t-30.5 -185.5t-90.5 -150t-157.5 -102t-224.5 -36.5h-326v-544h-180v1329h-93q-34 0 -58 -10t-38 -26t-22 -41t-10.5 -48.5t-2.5 -54.5v-55zM672 704h320
q171 0 251.5 85.5t80.5 228.5t-81 227t-254 84h-317v-625z" />
    <glyph glyph-name="uni01A5" unicode="&#x1a5;" horiz-adv-x="1248" 
d="M323 1117v-177h20q0 1 13 21.5t18 27t20.5 26.5t27.5 29.5t32 26t40.5 25t47 18.5t58 14t66.5 4q213 0 345 -157t132 -419q0 -264 -131.5 -421.5t-342.5 -157.5q-195 0 -299 152q-8 13 -22 35l-5 8h-14v-591h-172v1536q0 126 75.5 195.5t209.5 69.5q70 0 99 -9v-145
q-23 5 -55 5q-78 0 -120.5 -29.5t-42.5 -86.5zM326 559q0 -194 84 -311t236 -117q104 0 179 58t111 153t36 217q0 120 -35.5 213t-110 149t-180.5 56q-154 0 -237 -113t-83 -305z" />
    <glyph glyph-name="uni01A6" unicode="&#x1a6;" horiz-adv-x="1477" 
d="M1146 -361l-521 982h-305v-621h-209v1593h209v-102h276q249 0 380.5 -112.5t131.5 -326.5q0 -137 -74.5 -240t-210.5 -154l544 -1007v-12h-221zM320 787h276q147 0 226.5 74.5t79.5 190.5q0 128 -74 199t-232 71h-276v-535z" />
    <glyph glyph-name="uni01A7" unicode="&#x1a7;" horiz-adv-x="1306" 
d="M311 1117h-174q6 170 147 281.5t356 111.5q142 0 257.5 -51t183.5 -147t68 -218q0 -278 -378 -387l-183 -52q-68 -19 -114 -37.5t-91.5 -47t-68.5 -69.5t-23 -94q0 -121 103 -195.5t261 -74.5q142 0 240 63t109 184h186q-13 -186 -155.5 -298t-379.5 -112
q-250 0 -394.5 121.5t-144.5 308.5q0 80 30 146t72 107.5t104.5 75.5t108.5 50.5t104 31.5l152 40q41 11 73.5 21.5t75 32t71 46.5t48.5 63.5t20 84.5q0 108 -91 177.5t-238 69.5q-138 0 -230 -62.5t-105 -170.5z" />
    <glyph glyph-name="uni01A8" unicode="&#x1a8;" horiz-adv-x="1070" 
d="M122 867q90 265 396 265q178 0 294 -91t116 -232q0 -236 -297 -306l-186 -43q-166 -38 -166 -157q0 -74 72.5 -124.5t189.5 -50.5q213 0 259 180l163 -40q-30 -141 -141 -216t-284 -75q-194 0 -315 94t-121 240q0 230 297 303l165 41q102 25 147 62t45 100
q0 72 -67.5 119t-170.5 47q-180 0 -242 -160z" />
    <glyph glyph-name="uni01A9" unicode="&#x1a9;" horiz-adv-x="1291" 
d="M1146 169v-169h-1024v151l474 573l-474 579v154h978v-168h-720l437 -553v-20l-435 -547h764z" />
    <glyph glyph-name="uni01AA" unicode="&#x1aa;" horiz-adv-x="1105" 
d="M113 1219q0 142 99.5 240.5t241.5 98.5q140 0 240 -99t100 -240v-1289q0 -99 33 -141t101 -42q34 0 64 9v-157q-44 -18 -116 -18q-141 0 -212 89t-71 260v979q-64 -30 -139 -30q-141 0 -241 100t-100 240zM454 1062q66 0 108.5 41t42.5 119q0 76 -42.5 118t-108.5 42
q-68 0 -111 -42t-43 -118q0 -78 43 -119t111 -41z" />
    <glyph glyph-name="uni01AB" unicode="&#x1ab;" horiz-adv-x="750" 
d="M643 1117v-145h-239v-652q0 -99 40.5 -134t108.5 -35q22 0 46 4l70 14v-288q0 -140 -82 -220t-209 -80q-73 0 -99 9v145q30 -6 56 -6q162 0 162 152v107q-110 12 -187 86t-77 199v699h-169v145h169v268h171v-268h239z" />
    <glyph glyph-name="uni01AC" unicode="&#x1ac;" horiz-adv-x="1396" 
d="M1297 1489v-160h-468v-1329h-180v1329h-253q-71 0 -102.5 -47t-31.5 -118v-56h-163v88q0 132 80.5 212.5t216.5 80.5h901z" />
    <glyph glyph-name="uni01AD" unicode="&#x1ad;" horiz-adv-x="733" 
d="M660 1082v-148h-197v-634q0 -152 113 -152q19 0 87 12v-160q-64 -20 -148 -20q-111 0 -182 78.5t-71 241.5v634h-195v148h195v179q0 139 88.5 218t219.5 79q51 0 99 -15v-134q-26 9 -55 9q-73 0 -112 -36.5t-39 -120.5v-179h197z" />
    <glyph glyph-name="uni01AE" unicode="&#x1ae;" horiz-adv-x="1314" 
d="M99 1329v160h1117v-160h-468v-1448q0 -80 46.5 -110t127.5 -30h55v-160h-98q-129 0 -220.5 79.5t-91.5 217.5v1451h-468z" />
    <glyph glyph-name="uni01AF" unicode="&#x1af;" horiz-adv-x="1771" 
d="M1504 1580h169q0 -196 -80 -303.5t-255 -128.5v-645q0 -232 -159.5 -380.5t-419.5 -148.5t-419.5 148.5t-159.5 380.5v986h181v-971q0 -167 107 -271t291 -104t291.5 104.5t107.5 270.5v971h180v-194q92 20 129 89.5t37 195.5z" />
    <glyph glyph-name="uni01B0" unicode="&#x1b0;" horiz-adv-x="1274" 
d="M1164 1167h151q0 -163 -62 -243t-220 -91v-833h-172v189h-12q-42 -91 -126.5 -147.5t-204.5 -56.5q-163 0 -262 107.5t-99 314.5v710h172v-698q0 -121 68 -194.5t176 -73.5q50 0 99.5 19t92.5 55t69.5 96.5t26.5 135.5v660h172v-164q32 3 54.5 10t37 21.5t22.5 28.5
t11.5 42t4.5 49t1 63z" />
    <glyph glyph-name="uni01B1" unicode="&#x1b1;" horiz-adv-x="1559" 
d="M122 704q0 206 81.5 362t229.5 252v11h-311v160h530v-203q-151 -64 -253 -222t-102 -360q0 -154 61.5 -281t172.5 -201t249 -74t249 74t172.5 201t61.5 281q0 202 -102 360t-253 222v203h529v-160h-311v-11q148 -94 229.5 -250.5t81.5 -363.5q0 -210 -83.5 -375
t-233.5 -257t-340 -92t-340 92t-234 257t-84 375z" />
    <glyph glyph-name="uni01B2" unicode="&#x1b2;" horiz-adv-x="1291" 
d="M646 -20q-114 0 -209.5 31t-167.5 90.5t-112.5 154.5t-40.5 215v1018h207v-1018q0 -163 86 -244.5t237 -81.5t237 81.5t86 244.5v690q0 95 -41 136t-122 41q-42 0 -67 -6v160q58 18 124 18q137 0 226 -93t89 -256v-690q0 -120 -43 -215t-117.5 -154.5t-169 -90.5
t-202.5 -31z" />
    <glyph glyph-name="uni01B3" unicode="&#x1b3;" horiz-adv-x="1445" 
d="M55 1489h207l413 -695h17l326 547q71 119 176 154t211 -17l-46 -146q-117 49 -187 -67l-398 -651v-614h-181v614z" />
    <glyph glyph-name="uni01B4" unicode="&#x1b4;" horiz-adv-x="1287" 
d="M268 -419q-87 0 -125 20l43 152q101 -26 160.5 3.5t104.5 150.5l32 87l-413 1123h186l308 -890h12l285 823q24 69 50.5 121.5t65.5 103t92 77.5t118 27q109 0 193 -70l-46 -119q-72 38 -122 38q-64 0 -103.5 -54t-85.5 -185l-427 -1152q-94 -256 -328 -256z" />
    <glyph glyph-name="uni01B5" unicode="&#x1b5;" horiz-adv-x="1280" 
d="M131 0v131l382 570h-178v134h267l332 494h-812v160h1027v-130l-350 -524h176v-134h-267l-362 -541h812v-160h-1027z" />
    <glyph glyph-name="uni01B6" unicode="&#x1b6;" horiz-adv-x="1108" 
d="M125 0v131l281 361h-173v133h277l249 320v12h-614v160h835v-137l-270 -355h163v-133h-265l-244 -320v-12h637v-160h-876z" />
    <glyph glyph-name="uni01B7" unicode="&#x1b7;" horiz-adv-x="1396" 
d="M99 64h183q10 -150 127 -246t280 -96q186 0 300 129t114 326q0 215 -138.5 345t-359.5 130h-110v151l497 512v12h-809v162h1059v-130l-526 -550v-15q249 -11 406.5 -181.5t157.5 -432.5q0 -179 -73.5 -320.5t-209 -221t-310.5 -79.5q-241 0 -408 141.5t-180 363.5z" />
    <glyph glyph-name="uni01B8" unicode="&#x1b8;" horiz-adv-x="1396" 
d="M1297 64q-13 -222 -179.5 -363.5t-407.5 -141.5q-175 0 -311 79.5t-209.5 221t-73.5 320.5q0 262 158 432.5t407 181.5v15l-527 550v130h1059v-162h-809v-12l498 -512v-151h-111q-221 0 -359 -129.5t-138 -345.5q0 -197 113.5 -326t299.5 -129q163 0 280 96t127 246h183z
" />
    <glyph glyph-name="uni01B9" unicode="&#x1b9;" horiz-adv-x="1285" 
d="M1155 0q-8 -121 -78.5 -211.5t-180.5 -136t-244 -45.5q-224 0 -366.5 124t-142.5 316q0 184 131 310t325 135v11l-398 483v131h881v-160h-634v-12l372 -448v-145h-119q-194 0 -287.5 -86.5t-93.5 -218.5q0 -134 92 -207t237 -73q133 0 222 61.5t101 171.5h183z" />
    <glyph glyph-name="uni01BA" unicode="&#x1ba;" horiz-adv-x="1105" 
d="M145 1117h870v-122l-394 -348q141 -21 222.5 -96t81.5 -184q0 -70 -27 -123t-82.5 -90t-123.5 -61.5t-165 -45.5q-133 -28 -184.5 -73.5t-51.5 -105.5q0 -71 57.5 -111.5t156.5 -40.5q67 0 120.5 17t93 63t43.5 118h198q0 -68 -29.5 -132t-84 -114.5t-141 -81
t-190.5 -30.5q-191 0 -306.5 89t-115.5 234q0 129 100.5 208.5t303.5 121.5q133 29 180 62.5t47 100.5q0 123 -206 123h-175v125l383 337h-581v160z" />
    <glyph glyph-name="uni01BB" unicode="&#x1bb;" horiz-adv-x="1239" 
d="M154 0v131l492 538q20 22 29 32h-156v134h270q57 74 83.5 135t26.5 127q0 116 -81 186t-204 70q-128 0 -205 -77.5t-77 -204.5h-172q0 194 131 316.5t329 122.5q194 0 321 -119t127 -294q0 -132 -82 -262h173v-134h-271q-46 -57 -152 -172l-335 -357v-12h693v-160h-940z
" />
    <glyph glyph-name="uni01BC" unicode="&#x1bc;" horiz-adv-x="1221" 
d="M620 -20q-192 0 -323.5 111t-139.5 281h175q10 -101 91.5 -166.5t196.5 -65.5q137 0 227 94t90 237q0 146 -93.5 243t-235.5 98q-68 1 -140 -20.5t-119 -55.5l-169 20l71 573h-184v160h977v-160h-622l-53 -439h9q47 38 116.5 61.5t142.5 23.5q205 0 339.5 -142
t134.5 -359q0 -214 -139 -354t-352 -140z" />
    <glyph glyph-name="uni01BD" unicode="&#x1bd;" horiz-adv-x="1105" 
d="M381 471l-172 15l50 425h-166v171h864v-171h-509l-29 -236q34 23 94 41t115 20q181 4 282.5 -95t101.5 -280q0 -170 -105 -274t-322 -104q-72 0 -144 20.5t-133.5 58.5t-100 101.5t-38.5 141.5l192 18q0 -80 62.5 -129t161.5 -49q115 0 172.5 58.5t57.5 157.5t-58 157
t-166 58q-137 0 -210 -105z" />
    <glyph glyph-name="uni01BE" unicode="&#x1be;" horiz-adv-x="1105" 
d="M788 288q0 40 -20 72t-52 55.5t-70.5 46.5t-77.5 51t-71 62t-52 87.5t-20 120.5v151h-195v148h195v259h200v-259h198v-148h-198v-146q0 -50 20 -88.5t52 -63.5t71 -47t78 -46t71 -53.5t52 -76.5t20 -108q0 -145 -116.5 -235t-305.5 -90q-105 0 -192 30.5t-142 81
t-84.5 114.5t-29.5 134h201q2 -54 24.5 -94.5t59 -62.5t77.5 -32.5t86 -10.5q104 0 162.5 41.5t58.5 106.5z" />
    <glyph glyph-name="uni01BF" unicode="&#x1bf;" horiz-adv-x="1291" 
d="M377 1000q113 132 307 132q203 0 313.5 -150.5t110.5 -402.5v-50q0 -117 -33.5 -211.5t-91.5 -164.5t-152 -129t-198.5 -101t-248.5 -85v-254h-201v1533h184zM384 -4q120 33 211.5 77t164 107t110.5 151t38 198v50q0 108 -29 193.5t-95 139.5t-161 54q-158 0 -239 -141
v-829z" />
    <glyph glyph-name="uni01C0" unicode="&#x1c0;" horiz-adv-x="544" 
d="M352 1489v-1489h-160v1489h160z" />
    <glyph glyph-name="uni01C1" unicode="&#x1c1;" horiz-adv-x="733" 
d="M297 1489v-1489h-160v1489h160zM567 1489v-1489h-160v1489h160z" />
    <glyph glyph-name="uni01C2" unicode="&#x1c2;" horiz-adv-x="544" 
d="M352 1489v-424h237v-134h-237v-361h241v-134h-241v-436h-160v436h-239v134h239v361h-243v134h243v424h160z" />
    <glyph glyph-name="uni01C3" unicode="&#x1c3;" horiz-adv-x="570" 
d="M384 1489l-15 -1070h-168l-15 1070h198zM285 -12q-54 0 -92.5 38.5t-38.5 92.5t38.5 92.5t92.5 38.5t92.5 -38.5t38.5 -92.5t-38.5 -92.5t-92.5 -38.5z" />
    <glyph glyph-name="uni01C5" unicode="&#x1c5;" horiz-adv-x="2580" 
d="M640 0h-460v1489h480q324 0 507 -196.5t183 -544.5q0 -351 -186 -549.5t-524 -198.5zM361 160h267q271 0 409 154.5t138 433.5q0 275 -134 428t-392 153h-288v-1169zM1597 0v131l634 814v12h-614v160h835v-137l-616 -808v-12h637v-160h-876zM1873 1565l152 -204l151 204
h163v-12l-236 -302h-157l-235 302v12h162z" />
    <glyph glyph-name="uni01C6" unicode="&#x1c6;" horiz-adv-x="2167" 
d="M579 -23q-211 0 -342.5 157.5t-131.5 421.5q0 262 132 419t345 157q35 0 66.5 -4t58 -14t47 -18.5t40.5 -25t32 -26t27.5 -29.5t20.5 -26.5t18 -27t13 -21.5h14v549h172v-1489h-166v172h-20q-45 -72 -79 -105q-95 -90 -247 -90zM602 131q152 0 236 117t84 311
q0 192 -83 305t-237 113q-106 0 -180.5 -56t-110 -149t-35.5 -213q0 -122 36 -217t111 -153t179 -58zM1184 0v131l634 814v12h-614v160h835v-137l-616 -808v-12h637v-160h-876zM1460 1565l152 -204l151 204h163v-12l-236 -302h-157l-236 302v12h163z" />
    <glyph glyph-name="uni01C7" unicode="&#x1c7;" horiz-adv-x="2263" 
d="M180 0v1489h181v-1329h692v-160h-873zM1903 1489h180v-1064q0 -212 -114 -328.5t-311 -116.5q-186 0 -304 100t-118 269h178q0 -94 68 -151.5t176 -57.5q118 0 181.5 73.5t63.5 211.5v1064z" />
    <glyph glyph-name="uni01C8" unicode="&#x1c8;" horiz-adv-x="1637" 
d="M180 0v1489h181v-1329h692v-160h-873zM1309 1117h172v-1198q0 -159 -81 -248.5t-239 -89.5h-35v160h32q151 0 151 178v1198zM1393 1303q-50 0 -86 34.5t-36 82.5t36 82t86 34t86.5 -34t36.5 -82t-36.5 -82.5t-86.5 -34.5z" />
    <glyph glyph-name="uni01C9" unicode="&#x1c9;" horiz-adv-x="971" 
d="M643 1117h172v-1198q0 -159 -81 -248.5t-239 -89.5h-35v160h32q151 0 151 178v1198zM329 1489v-1489h-172v1489h172zM727 1303q-50 0 -86 34.5t-36 82.5t36 82t86 34t86 -34t36 -82t-36 -82.5t-86 -34.5z" />
    <glyph glyph-name="uni01CA" unicode="&#x1ca;" horiz-adv-x="2653" 
d="M1361 1489v-1489h-174l-812 1169h-14v-1169h-181v1489h175l814 -1172h15v1172h177zM2292 1489h181v-1064q0 -212 -114 -328.5t-311 -116.5q-186 0 -304 100t-118 269h178q0 -94 68 -151.5t176 -57.5q117 0 180.5 73.5t63.5 211.5v1064z" />
    <glyph glyph-name="uni01CB" unicode="&#x1cb;" horiz-adv-x="1998" 
d="M1361 1489v-1489h-174l-812 1169h-14v-1169h-181v1489h175l814 -1172h15v1172h177zM1670 1117h171v-1198q0 -159 -81 -248.5t-239 -89.5h-34v160h32q151 0 151 178v1198zM1754 1303q-50 0 -86 34.5t-36 82.5t36 82t86 34t86 -34t36 -82t-36 -82.5t-86 -34.5z" />
    <glyph glyph-name="uni01CC" unicode="&#x1cc;" horiz-adv-x="1684" 
d="M329 672v-672h-172v1117h166v-174h14q87 189 326 189q175 0 276.5 -107t101.5 -315v-710h-171v698q0 131 -68 205t-188 74q-126 0 -205.5 -81t-79.5 -224zM1356 1117h171v-1198q0 -159 -81 -248.5t-239 -89.5h-35v160h32q152 0 152 178v1198zM1440 1303q-50 0 -86 34.5
t-36 82.5t36 82t86 34t86 -34t36 -82t-36 -82.5t-86 -34.5z" />
    <glyph glyph-name="uni01CD" unicode="&#x1cd;" horiz-adv-x="1384" 
d="M241 0h-189l547 1489h186l547 -1489h-189l-150 422h-602zM448 582h489l-239 672h-11zM541 1937l151 -203l152 203h163v-11l-236 -303h-157l-236 303v11h163z" />
    <glyph glyph-name="uni01CE" unicode="&#x1ce;" horiz-adv-x="1154" 
d="M486 -26q-165 0 -273 92t-108 251q0 53 13.5 97t35.5 75.5t57 56t69 40t82 28t86 19t90 13.5q28 4 63 8t56 6t46 5.5t39.5 6.5t30.5 8t24 10.5t15.5 14t10.5 19t3 24.5v5q0 109 -59 168t-176 59q-113 0 -185.5 -48.5t-105.5 -119.5l-163 58q31 73 82 126.5t112.5 81.5
t123.5 41t130 13q35 0 68 -3t76 -13.5t79 -27.5t72 -47.5t61.5 -70.5t41 -100.5t15.5 -133.5v-736h-172v151h-9q-15 -30 -40 -59t-64.5 -56.5t-98.5 -44.5t-128 -17zM512 128q146 0 230 82t84 194v157q-5 -6 -15 -11t-26 -10t-32.5 -9t-39 -8t-40 -7t-42 -6.5t-38.5 -5
t-36 -4t-28 -3.5q-55 -7 -97 -18.5t-79 -32.5t-57 -56t-20 -82q0 -87 65 -133.5t171 -46.5zM445 1565l151 -204l152 204h163v-12l-236 -302h-157l-236 302v12h163z" />
    <glyph glyph-name="uni01CF" unicode="&#x1cf;" horiz-adv-x="541" 
d="M361 1489v-1489h-181v1489h181zM119 1937l152 -203l151 203h163v-11l-236 -303h-157l-236 303v11h163z" />
    <glyph glyph-name="uni01D0" unicode="&#x1d0;" horiz-adv-x="485" 
d="M157 0v1117h172v-1117h-172zM93 1565l151 -204l152 204h163v-12l-236 -302h-157l-236 302v12h163z" />
    <glyph glyph-name="uni01D1" unicode="&#x1d1;" horiz-adv-x="1559" 
d="M1437 745q0 -174 -49 -318t-136.5 -241.5t-208.5 -151.5t-263 -54t-263.5 54t-208.5 151.5t-136.5 241.5t-49.5 318t49.5 318t136.5 241.5t208.5 151.5t263.5 54t263 -54t208.5 -151.5t136.5 -241.5t49 -318zM1263 745q0 281 -136 438.5t-347 157.5t-347 -157.5
t-136 -438.5t136 -439t347 -158t347 158t136 439zM628 1937l152 -203l151 203h163v-11l-236 -303h-157l-236 303v11h163z" />
    <glyph glyph-name="uni01D2" unicode="&#x1d2;" horiz-adv-x="1221" 
d="M611 -23q-227 0 -366.5 158.5t-139.5 417.5q0 261 139 420t367 159t367 -159t139 -420q0 -259 -139.5 -417.5t-366.5 -158.5zM611 131q84 0 149 34t104.5 93t60 134t20.5 161t-20.5 161t-60 134.5t-105 94t-148.5 34.5t-148.5 -34.5t-105.5 -94t-60.5 -134.5t-20.5 -161
t20.5 -161t60.5 -134t105 -93t149 -34zM460 1565l151 -204l151 204h163v-12l-236 -302h-157l-235 302v12h163z" />
    <glyph glyph-name="uni01D3" unicode="&#x1d3;" horiz-adv-x="1518" 
d="M1158 1489h180v-986q0 -232 -159.5 -380.5t-419.5 -148.5t-419.5 148.5t-159.5 380.5v986h181v-971q0 -167 107 -271t291 -104t291.5 104.5t107.5 270.5v971zM608 1937l151 -203l152 203h162v-11l-235 -303h-157l-236 303v11h163z" />
    <glyph glyph-name="uni01D4" unicode="&#x1d4;" horiz-adv-x="1189" 
d="M861 457v660h172v-1117h-172v189h-12q-42 -91 -126.5 -147.5t-204.5 -56.5q-163 0 -262 107.5t-99 314.5v710h172v-698q0 -121 68 -194.5t176 -73.5q50 0 99.5 19t92.5 55t69.5 96.5t26.5 135.5zM445 1565l151 -204l152 204h163v-12l-236 -302h-157l-236 302v12h163z" />
    <glyph glyph-name="uni01D5" unicode="&#x1d5;" horiz-adv-x="1518" 
d="M1158 1489h180v-986q0 -232 -159.5 -380.5t-419.5 -148.5t-419.5 148.5t-159.5 380.5v986h181v-971q0 -167 107 -271t291 -104t291.5 104.5t107.5 270.5v971zM1100 2234v-145h-681v145h681zM550 1676q-46 0 -81.5 35t-35.5 81q0 49 35 82.5t82 33.5q50 0 83 -33t33 -83
q0 -47 -33.5 -81.5t-82.5 -34.5zM969 1676q-46 0 -81.5 35t-35.5 81q0 49 35 82.5t82 33.5q50 0 83 -33t33 -83q0 -47 -33.5 -81.5t-82.5 -34.5z" />
    <glyph glyph-name="uni01D6" unicode="&#x1d6;" horiz-adv-x="1189" 
d="M861 457v660h172v-1117h-172v189h-12q-42 -91 -126.5 -147.5t-204.5 -56.5q-163 0 -262 107.5t-99 314.5v710h172v-698q0 -121 68 -194.5t176 -73.5q50 0 99.5 19t92.5 55t69.5 96.5t26.5 135.5zM937 1862v-146h-681v146h681zM387 1303q-46 0 -81 35.5t-35 81.5
q0 49 34.5 82.5t81.5 33.5q50 0 83 -33t33 -83q0 -47 -33.5 -82t-82.5 -35zM806 1303q-46 0 -81.5 35.5t-35.5 81.5q0 49 35 82.5t82 33.5q50 0 83 -33t33 -83q0 -47 -33.5 -82t-82.5 -35z" />
    <glyph glyph-name="uni01D7" unicode="&#x1d7;" horiz-adv-x="1518" 
d="M1158 1489h180v-986q0 -232 -159.5 -380.5t-419.5 -148.5t-419.5 148.5t-159.5 380.5v986h181v-971q0 -167 107 -271t291 -104t291.5 104.5t107.5 270.5v971zM550 1606q-46 0 -81.5 35t-35.5 81q0 49 35 83t82 34q50 0 83 -33.5t33 -83.5q0 -47 -33.5 -81.5t-82.5 -34.5z
M969 1606q-46 0 -81.5 35t-35.5 81q0 49 35 83t82 34q50 0 83 -33.5t33 -83.5q0 -47 -33.5 -81.5t-82.5 -34.5zM684 1943l212 221h201l-262 -221h-151z" />
    <glyph glyph-name="uni01D8" unicode="&#x1d8;" horiz-adv-x="1189" 
d="M861 457v660h172v-1117h-172v189h-12q-42 -91 -126.5 -147.5t-204.5 -56.5q-163 0 -262 107.5t-99 314.5v710h172v-698q0 -121 68 -194.5t176 -73.5q50 0 99.5 19t92.5 55t69.5 96.5t26.5 135.5zM518 1641l177 337h201l-227 -337h-151zM387 1303q-46 0 -81 35.5t-35 81.5
q0 49 34.5 82.5t81.5 33.5q50 0 83 -33t33 -83q0 -47 -33.5 -82t-82.5 -35zM806 1303q-46 0 -81.5 35.5t-35.5 81.5q0 49 35 82.5t82 33.5q50 0 83 -33t33 -83q0 -47 -33.5 -82t-82.5 -35z" />
    <glyph glyph-name="uni01D9" unicode="&#x1d9;" horiz-adv-x="1518" 
d="M1158 1489h180v-986q0 -232 -159.5 -380.5t-419.5 -148.5t-419.5 148.5t-159.5 380.5v986h181v-971q0 -167 107 -271t291 -104t291.5 104.5t107.5 270.5v971zM611 2092l145 -125l146 125h171v-18l-256 -218h-122l-253 215v21h169zM410 1758q0 49 30.5 81t83.5 32
q55 0 85.5 -32t30.5 -82q0 -47 -30.5 -77.5t-84.5 -30.5q-55 0 -85 31t-30 78zM879 1756q0 49 30.5 80.5t85.5 31.5q53 0 83 -31.5t30 -79.5q0 -47 -29.5 -78.5t-83.5 -31.5q-55 0 -85.5 31t-30.5 78z" />
    <glyph glyph-name="uni01DA" unicode="&#x1da;" horiz-adv-x="1189" 
d="M861 457v660h172v-1117h-172v189h-12q-42 -91 -126.5 -147.5t-204.5 -56.5q-163 0 -262 107.5t-99 314.5v710h172v-698q0 -121 68 -194.5t176 -73.5q50 0 99.5 19t92.5 55t69.5 96.5t26.5 135.5zM451 1841l145 -168l146 168h171v-11l-256 -277h-122l-253 277v11h169z
M698 1376q0 48 31 80.5t86 32.5t85.5 -32.5t30.5 -80.5q0 -46 -30.5 -77t-85.5 -31t-86 31t-31 77zM271 1379q0 47 29.5 78.5t83.5 31.5q55 0 85.5 -31t30.5 -79t-30.5 -78t-85.5 -30q-53 0 -83 30.5t-30 77.5z" />
    <glyph glyph-name="uni01DB" unicode="&#x1db;" horiz-adv-x="1518" 
d="M1158 1489h180v-986q0 -232 -159.5 -380.5t-419.5 -148.5t-419.5 148.5t-159.5 380.5v986h181v-971q0 -167 107 -271t291 -104t291.5 104.5t107.5 270.5v971zM410 1758q0 49 30.5 81t83.5 32q55 0 85.5 -32t30.5 -82q0 -47 -30.5 -77.5t-84.5 -30.5q-55 0 -85 31t-30 78z
M879 1756q0 49 30.5 80.5t85.5 31.5q53 0 83 -31.5t30 -79.5q0 -47 -29.5 -78.5t-83.5 -31.5q-55 0 -85.5 31t-30.5 78zM707 2042l128 -227h-128l-183 227h183z" />
    <glyph glyph-name="uni01DC" unicode="&#x1dc;" horiz-adv-x="1189" 
d="M861 457v660h172v-1117h-172v189h-12q-42 -91 -126.5 -147.5t-204.5 -56.5q-163 0 -262 107.5t-99 314.5v710h172v-698q0 -121 68 -194.5t176 -73.5q50 0 99.5 19t92.5 55t69.5 96.5t26.5 135.5zM515 1839l195 -297h-172l-265 297h242zM698 1376q0 48 31 80.5t86 32.5
t85.5 -32.5t30.5 -80.5q0 -46 -30.5 -77t-85.5 -31t-86 31t-31 77zM271 1379q0 47 29.5 78.5t83.5 31.5q55 0 85.5 -31t30.5 -79t-30.5 -78t-85.5 -30q-53 0 -83 30.5t-30 77.5z" />
    <glyph glyph-name="uni01DD" unicode="&#x1dd;" horiz-adv-x="1192" 
d="M567 1140q240 0 380.5 -157t140.5 -416t-138.5 -420.5t-364.5 -161.5q-73 0 -139.5 17.5t-129.5 59.5t-109 105t-74 159.5t-28 217.5v73h811q-6 176 -100.5 272.5t-248.5 96.5q-103 0 -174.5 -44t-104.5 -130l-166 46q40 129 158.5 205.5t286.5 76.5zM916 468h-637
q0 -144 84 -236t222 -92q141 0 231.5 95.5t99.5 232.5z" />
    <glyph glyph-name="uni01DE" unicode="&#x1de;" horiz-adv-x="1384" 
d="M241 0h-189l547 1489h186l547 -1489h-189l-150 422h-602zM448 582h489l-239 672h-11zM1033 2234v-145h-681v145h681zM483 1676q-46 0 -81 35t-35 81q0 49 34.5 82.5t81.5 33.5q50 0 83 -33t33 -83q0 -47 -33.5 -81.5t-82.5 -34.5zM902 1676q-46 0 -81.5 35t-35.5 81
q0 49 35 82.5t82 33.5q50 0 83 -33t33 -83q0 -47 -33.5 -81.5t-82.5 -34.5z" />
    <glyph glyph-name="uni01DF" unicode="&#x1df;" horiz-adv-x="1154" 
d="M486 -26q-165 0 -273 92t-108 251q0 53 13.5 97t35.5 75.5t57 56t69 40t82 28t86 19t90 13.5q28 4 63 8t56 6t46 5.5t39.5 6.5t30.5 8t24 10.5t15.5 14t10.5 19t3 24.5v5q0 109 -59 168t-176 59q-113 0 -185.5 -48.5t-105.5 -119.5l-163 58q31 73 82 126.5t112.5 81.5
t123.5 41t130 13q35 0 68 -3t76 -13.5t79 -27.5t72 -47.5t61.5 -70.5t41 -100.5t15.5 -133.5v-736h-172v151h-9q-15 -30 -40 -59t-64.5 -56.5t-98.5 -44.5t-128 -17zM512 128q146 0 230 82t84 194v157q-5 -6 -15 -11t-26 -10t-32.5 -9t-39 -8t-40 -7t-42 -6.5t-38.5 -5
t-36 -4t-28 -3.5q-55 -7 -97 -18.5t-79 -32.5t-57 -56t-20 -82q0 -87 65 -133.5t171 -46.5zM937 1862v-146h-681v146h681zM387 1303q-46 0 -81 35.5t-35 81.5q0 49 34.5 82.5t81.5 33.5q50 0 83 -33t33 -83q0 -47 -33.5 -82t-82.5 -35zM806 1303q-46 0 -81.5 35.5
t-35.5 81.5q0 49 35 82.5t82 33.5q50 0 83 -33t33 -83q0 -47 -33.5 -82t-82.5 -35z" />
    <glyph glyph-name="uni01E0" unicode="&#x1e0;" horiz-adv-x="1384" 
d="M241 0h-189l547 1489h186l547 -1489h-189l-150 422h-602zM448 582h489l-239 672h-11zM1033 2234v-145h-681v145h681zM692 1676q-50 0 -86 34t-36 82t36 82t86 34t86.5 -34t36.5 -82t-36.5 -82t-86.5 -34z" />
    <glyph glyph-name="uni01E1" unicode="&#x1e1;" horiz-adv-x="1154" 
d="M486 -26q-165 0 -273 92t-108 251q0 53 13.5 97t35.5 75.5t57 56t69 40t82 28t86 19t90 13.5q28 4 63 8t56 6t46 5.5t39.5 6.5t30.5 8t24 10.5t15.5 14t10.5 19t3 24.5v5q0 109 -59 168t-176 59q-113 0 -185.5 -48.5t-105.5 -119.5l-163 58q31 73 82 126.5t112.5 81.5
t123.5 41t130 13q35 0 68 -3t76 -13.5t79 -27.5t72 -47.5t61.5 -70.5t41 -100.5t15.5 -133.5v-736h-172v151h-9q-15 -30 -40 -59t-64.5 -56.5t-98.5 -44.5t-128 -17zM512 128q146 0 230 82t84 194v157q-5 -6 -15 -11t-26 -10t-32.5 -9t-39 -8t-40 -7t-42 -6.5t-38.5 -5
t-36 -4t-28 -3.5q-55 -7 -97 -18.5t-79 -32.5t-57 -56t-20 -82q0 -87 65 -133.5t171 -46.5zM940 1859v-146h-681v146h681zM599 1300q-50 0 -86 34.5t-36 82.5t36 82t86 34t86 -34t36 -82t-36 -82.5t-86 -34.5z" />
    <glyph glyph-name="uni01E2" unicode="&#x1e2;" horiz-adv-x="2027" 
d="M52 0l722 1489h1108v-160h-718v-503h672v-160h-672v-506h730v-160h-911v422h-534l-199 -422h-198zM524 582h459v747h-107zM1664 1862v-146h-681v146h681z" />
    <glyph glyph-name="uni01E3" unicode="&#x1e3;" horiz-adv-x="1893" 
d="M1327 -23q-148 0 -259.5 61t-165.5 166h-6q-34 -96 -150.5 -163t-259.5 -67q-165 0 -273 92t-108 251q0 53 13.5 97t35.5 75.5t57 56.5t69 40.5t82 28t86.5 19t89.5 12.5q27 3 63 7.5t56 6.5t46 6t39.5 7t30 8t24.5 10.5t15.5 14t10.5 18.5t3 24v5q0 109 -59.5 168
t-175.5 59q-112 0 -185 -48.5t-106 -119.5l-163 58q31 73 82 126.5t112.5 81.5t123.5 41t130 13q47 0 91.5 -6.5t98 -24t99.5 -55.5t76 -93q125 179 359 179q73 0 139.5 -17.5t129.5 -59.5t109 -105t74 -159.5t28 -217.5v-73h-811q6 -176 101 -272.5t248 -96.5
q103 0 174.5 44t104.5 130l166 -46q-40 -129 -158.5 -205.5t-286.5 -76.5zM512 128q146 0 230 82t84 194v157q-5 -6 -15 -11t-26 -10t-32.5 -9t-39 -8t-40 -7t-42 -6.5t-38.5 -5t-36 -4t-28 -3.5q-55 -7 -97 -18.5t-79 -32.5t-57 -56t-20 -82q0 -87 65 -133.5t171 -46.5z
M978 649h637q0 144 -84 236t-222 92q-141 0 -231.5 -96t-99.5 -232zM1274 1489v-145h-681v145h681z" />
    <glyph glyph-name="uni01E4" unicode="&#x1e4;" horiz-adv-x="1521" 
d="M1495 454v-146h-158q-71 -155 -216 -241.5t-336 -86.5q-299 0 -481 207t-182 558q0 349 181 557t471 208q234 0 402 -134.5t209 -351.5h-186q-48 150 -157.5 233.5t-267.5 83.5q-100 0 -186.5 -39.5t-151.5 -113t-102 -187.5t-37 -256q0 -282 137 -439.5t351 -157.5
q110 0 200 41.5t147 118.5h-306v146h375q17 62 18 131h-393v160h567v-160q0 -75 -11 -131h113z" />
    <glyph glyph-name="uni01E5" unicode="&#x1e5;" horiz-adv-x="1248" 
d="M608 -442q-173 0 -285.5 62.5t-171.5 161.5l137 96q23 -31 32 -43t41 -42t61 -44t78.5 -27t107.5 -13q141 0 226 68.5t85 202.5v227h-14q-44 -71 -77 -102q-94 -88 -249 -88q-209 0 -341.5 146t-132.5 401q0 256 132 412t345 156q58 0 108 -14t80 -30t60.5 -47t40.5 -45
t29 -44q6 -8 8 -12h17v177h166v-486h238v-134h-238v-529q0 -105 -37.5 -185t-104 -128.5t-152.5 -72.5t-189 -24zM602 172q138 0 220 85t97 240h-230v134h230q-14 160 -95.5 253t-221.5 93q-157 0 -241.5 -115.5t-84.5 -294.5q0 -180 84.5 -287.5t241.5 -107.5z" />
    <glyph glyph-name="uni01E6" unicode="&#x1e6;" horiz-adv-x="1521" 
d="M1199 1024q-48 150 -157.5 233.5t-267.5 83.5q-100 0 -186.5 -39.5t-151.5 -113t-102 -187.5t-37 -256q0 -282 137 -439.5t351 -157.5q191 0 310.5 119t123.5 318h-393v160h567v-160q0 -274 -169.5 -439.5t-438.5 -165.5q-299 0 -481 207t-182 558q0 349 181 557t471 208
q234 0 402 -134.5t209 -351.5h-186zM623 1937l151 -203l151 203h163v-11l-236 -303h-157l-235 303v11h163z" />
    <glyph glyph-name="uni01E7" unicode="&#x1e7;" horiz-adv-x="1248" 
d="M608 -442q-173 0 -285.5 62.5t-171.5 161.5l137 96q23 -31 32 -43t41 -42t61 -44t78.5 -27t107.5 -13q141 0 226 68.5t85 202.5v227h-14q-44 -71 -77 -102q-94 -88 -249 -88q-209 0 -341.5 146t-132.5 401q0 256 132 412t345 156q58 0 108 -14t80 -30t60.5 -47t40.5 -45
t29 -44q6 -8 8 -12h17v177h166v-1149q0 -105 -37.5 -185t-104 -128.5t-152.5 -72.5t-189 -24zM602 172q154 0 237 104t83 291q0 186 -83.5 298t-236.5 112q-157 0 -241.5 -115.5t-84.5 -294.5q0 -180 84.5 -287.5t241.5 -107.5zM474 1565l151 -204l152 204h163v-12
l-236 -302h-157l-236 302v12h163z" />
    <glyph glyph-name="uni01E8" unicode="&#x1e8;" horiz-adv-x="1335" 
d="M180 0v1489h181v-738h17l669 738h236l-626 -672l626 -817h-218l-518 692l-186 -209v-483h-181zM524 1937l151 -203l151 203h163v-11l-236 -303h-157l-235 303v11h163z" />
    <glyph glyph-name="uni01E9" unicode="&#x1e9;" horiz-adv-x="1114" 
d="M157 0v1489h172v-869h20l489 497h212l-472 -477l507 -640h-218l-418 529l-120 -111v-418h-172zM93 1937l151 -203l152 203h163v-11l-236 -303h-157l-236 303v11h163z" />
    <glyph glyph-name="uni01EA" unicode="&#x1ea;" horiz-adv-x="1559" 
d="M1437 745q0 -302 -141 -501.5t-374 -249.5q-80 -59 -124.5 -110.5t-44.5 -110.5q0 -35 17 -52.5t59 -17.5q56 0 99 26l12 -128q-69 -43 -155 -43q-92 0 -149 50.5t-57 141.5q0 132 137 233q-130 12 -239.5 70t-188 155t-122.5 235t-44 302q0 174 49.5 318t136.5 241.5
t208.5 151.5t263.5 54t263 -54t208.5 -151.5t136.5 -241.5t49 -318zM1263 745q0 281 -136 438.5t-347 157.5t-347 -157.5t-136 -438.5t136 -439t347 -158t347 158t136 439z" />
    <glyph glyph-name="uni01EB" unicode="&#x1eb;" horiz-adv-x="1221" 
d="M602 -436q-92 0 -149 50.5t-57 141.5q0 127 131 227q-192 29 -307 183t-115 387q0 261 139 420t367 159t367 -159t139 -420q0 -225 -106.5 -376t-287.5 -189q-153 -113 -153 -209q0 -35 17 -52.5t59 -17.5q56 0 99 26l11 -128q-69 -43 -154 -43zM611 131q84 0 149 34
t104.5 93t60 134t20.5 161t-20.5 161t-60 134.5t-105 94t-148.5 34.5t-148.5 -34.5t-105.5 -94t-60.5 -134.5t-20.5 -161t20.5 -161t60.5 -134t105 -93t149 -34z" />
    <glyph glyph-name="uni01EC" unicode="&#x1ec;" horiz-adv-x="1559" 
d="M1437 745q0 -302 -141 -501.5t-374 -249.5q-80 -59 -124.5 -110.5t-44.5 -110.5q0 -35 17 -52.5t59 -17.5q56 0 99 26l12 -128q-69 -43 -155 -43q-92 0 -149 50.5t-57 141.5q0 132 137 233q-130 12 -239.5 70t-188 155t-122.5 235t-44 302q0 174 49.5 318t136.5 241.5
t208.5 151.5t263.5 54t263 -54t208.5 -151.5t136.5 -241.5t49 -318zM1263 745q0 281 -136 438.5t-347 157.5t-347 -157.5t-136 -438.5t136 -439t347 -158t347 158t136 439zM1120 1862v-146h-681v146h681z" />
    <glyph glyph-name="uni01ED" unicode="&#x1ed;" horiz-adv-x="1221" 
d="M602 -436q-92 0 -149 50.5t-57 141.5q0 127 131 227q-192 29 -307 183t-115 387q0 261 139 420t367 159t367 -159t139 -420q0 -225 -106.5 -376t-287.5 -189q-153 -113 -153 -209q0 -35 17 -52.5t59 -17.5q56 0 99 26l11 -128q-69 -43 -154 -43zM611 131q84 0 149 34
t104.5 93t60 134t20.5 161t-20.5 161t-60 134.5t-105 94t-148.5 34.5t-148.5 -34.5t-105.5 -94t-60.5 -134.5t-20.5 -161t20.5 -161t60.5 -134t105 -93t149 -34zM951 1489v-145h-680v145h680z" />
    <glyph glyph-name="uni01EE" unicode="&#x1ee;" horiz-adv-x="1396" 
d="M99 64h183q10 -150 127 -246t280 -96q186 0 300 129t114 326q0 215 -138.5 345t-359.5 130h-110v151l497 512v12h-809v162h1059v-130l-526 -550v-15q249 -11 406.5 -181.5t157.5 -432.5q0 -179 -73.5 -320.5t-209 -221t-310.5 -79.5q-241 0 -408 141.5t-180 363.5z
M547 1937l151 -203l151 203h163v-11l-235 -303h-157l-236 303v11h163z" />
    <glyph glyph-name="uni01EF" unicode="&#x1ef;" horiz-adv-x="1285" 
d="M131 0h183q12 -110 101 -171.5t222 -61.5q145 0 237 73t92 207q0 132 -93.5 218.5t-287.5 86.5h-120v145l373 448v12h-634v160h881v-131l-398 -483v-11q194 -9 325 -135t131 -310q0 -192 -142.5 -316t-366.5 -124q-134 0 -244 45.5t-180.5 136t-78.5 211.5zM492 1565
l151 -204l151 204h163v-12l-236 -302h-157l-235 302v12h163z" />
    <glyph glyph-name="uni01F0" unicode="&#x1f0;" horiz-adv-x="485" 
d="M157 1117h172v-1198q0 -159 -81 -248.5t-239 -89.5h-35v160h32q151 0 151 178v1198zM90 1565l151 -204l152 204h163v-12l-236 -302h-157l-236 302v12h163z" />
    <glyph glyph-name="uni01F1" unicode="&#x1f1;" horiz-adv-x="2752" 
d="M640 0h-460v1489h480q324 0 507 -196.5t183 -544.5q0 -351 -186 -549.5t-524 -198.5zM361 160h267q271 0 409 154.5t138 433.5q0 275 -134 428t-392 153h-288v-1169zM1603 0v131l803 1198h-812v160h1027v-130l-803 -1199h812v-160h-1027z" />
    <glyph glyph-name="uni01F2" unicode="&#x1f2;" horiz-adv-x="2580" 
d="M640 0h-460v1489h480q324 0 507 -196.5t183 -544.5q0 -351 -186 -549.5t-524 -198.5zM361 160h267q271 0 409 154.5t138 433.5q0 275 -134 428t-392 153h-288v-1169zM1597 0v131l634 814v12h-614v160h835v-137l-616 -808v-12h637v-160h-876z" />
    <glyph glyph-name="uni01F3" unicode="&#x1f3;" horiz-adv-x="2167" 
d="M579 -23q-211 0 -342.5 157.5t-131.5 421.5q0 262 132 419t345 157q35 0 66.5 -4t58 -14t47 -18.5t40.5 -25t32 -26t27.5 -29.5t20.5 -26.5t18 -27t13 -21.5h14v549h172v-1489h-166v172h-20q-45 -72 -79 -105q-95 -90 -247 -90zM602 131q152 0 236 117t84 311
q0 192 -83 305t-237 113q-106 0 -180.5 -56t-110 -149t-35.5 -213q0 -122 36 -217t111 -153t179 -58zM1184 0v131l634 814v12h-614v160h835v-137l-616 -808v-12h637v-160h-876z" />
    <glyph glyph-name="uni01F4" unicode="&#x1f4;" horiz-adv-x="1521" 
d="M1199 1024q-48 150 -157.5 233.5t-267.5 83.5q-100 0 -186.5 -39.5t-151.5 -113t-102 -187.5t-37 -256q0 -282 137 -439.5t351 -157.5q191 0 310.5 119t123.5 318h-393v160h567v-160q0 -274 -169.5 -439.5t-438.5 -165.5q-299 0 -481 207t-182 558q0 349 181 557t471 208
q234 0 402 -134.5t209 -351.5h-186zM695 1641l178 337h200l-226 -337h-152z" />
    <glyph glyph-name="uni01F5" unicode="&#x1f5;" horiz-adv-x="1248" 
d="M608 -442q-173 0 -285.5 62.5t-171.5 161.5l137 96q23 -31 32 -43t41 -42t61 -44t78.5 -27t107.5 -13q141 0 226 68.5t85 202.5v227h-14q-44 -71 -77 -102q-94 -88 -249 -88q-209 0 -341.5 146t-132.5 401q0 256 132 412t345 156q58 0 108 -14t80 -30t60.5 -47t40.5 -45
t29 -44q6 -8 8 -12h17v177h166v-1149q0 -105 -37.5 -185t-104 -128.5t-152.5 -72.5t-189 -24zM602 172q154 0 237 104t83 291q0 186 -83.5 298t-236.5 112q-157 0 -241.5 -115.5t-84.5 -294.5q0 -180 84.5 -287.5t241.5 -107.5zM547 1268l177 338h201l-227 -338h-151z" />
    <glyph glyph-name="uni01F6" unicode="&#x1f6;" horiz-adv-x="2280" 
d="M1644 -20q-224 0 -356.5 127t-132.5 364v195h-794v-666h-181v1489h181v-663h794v663h180v-1018q0 -165 79.5 -245.5t229.5 -80.5q299 0 299 326v646h181v-646q0 -240 -130.5 -365.5t-349.5 -125.5z" />
    <glyph glyph-name="uni01F7" unicode="&#x1f7;" horiz-adv-x="1291" 
d="M323 1489v-37q114 58 269 58q273 0 429.5 -158t156.5 -468v-52q0 -239 -111.5 -448.5t-306 -351.5t-437.5 -194v-257h-210v1908h210zM323 9q162 43 289 131.5t204 202t116.5 238t39.5 251.5v55q0 235 -96 344.5t-283 109.5q-190 0 -270 -119v-1213z" />
    <glyph glyph-name="uni01F8" unicode="&#x1f8;" horiz-adv-x="1541" 
d="M1361 1489v-1489h-174l-812 1169h-14v-1169h-181v1489h175l814 -1172h15v1172h177zM698 1641l-227 337h201l177 -337h-151z" />
    <glyph glyph-name="uni01F9" unicode="&#x1f9;" horiz-adv-x="1198" 
d="M329 672v-672h-172v1117h166v-174h14q87 189 326 189q175 0 276.5 -107t101.5 -315v-710h-171v698q0 131 -68 205t-188 74q-126 0 -205.5 -81t-79.5 -224zM527 1268l-227 338h200l178 -338h-151z" />
    <glyph glyph-name="uni01FA" unicode="&#x1fa;" horiz-adv-x="1384" 
d="M241 0h-189l547 1489h186l547 -1489h-189l-150 422h-602zM448 582h489l-239 672h-11zM692 1592q-87 0 -149 58.5t-62 141.5t62 142t149 59t149 -59t62 -142t-62 -141.5t-149 -58.5zM692 1691q45 0 75 29.5t30 71.5t-30 71.5t-75 29.5t-74.5 -29.5t-29.5 -71.5t29.5 -71.5
t74.5 -29.5zM620 2051l145 180h183l-187 -180h-141z" />
    <glyph glyph-name="uni01FB" unicode="&#x1fb;" horiz-adv-x="1154" 
d="M486 -26q-165 0 -273 92t-108 251q0 53 13.5 97t35.5 75.5t57 56t69 40t82 28t86 19t90 13.5q28 4 63 8t56 6t46 5.5t39.5 6.5t30.5 8t24 10.5t15.5 14t10.5 19t3 24.5v5q0 109 -59 168t-176 59q-113 0 -185.5 -48.5t-105.5 -119.5l-163 58q31 73 82 126.5t112.5 81.5
t123.5 41t130 13q35 0 68 -3t76 -13.5t79 -27.5t72 -47.5t61.5 -70.5t41 -100.5t15.5 -133.5v-736h-172v151h-9q-15 -30 -40 -59t-64.5 -56.5t-98.5 -44.5t-128 -17zM512 128q146 0 230 82t84 194v157q-5 -6 -15 -11t-26 -10t-32.5 -9t-39 -8t-40 -7t-42 -6.5t-38.5 -5
t-36 -4t-28 -3.5q-55 -7 -97 -18.5t-79 -32.5t-57 -56t-20 -82q0 -87 65 -133.5t171 -46.5zM596 1220q-87 0 -149 58.5t-62 141.5t62 141.5t149 58.5t149 -58.5t62 -141.5t-62 -141.5t-149 -58.5zM596 1319q45 0 75 29.5t30 71.5t-30 71.5t-75 29.5t-74.5 -29.5t-29.5 -71.5
t29.5 -71.5t74.5 -29.5zM524 1679l145 180h183l-187 -180h-141z" />
    <glyph glyph-name="uni01FC" unicode="&#x1fc;" horiz-adv-x="2027" 
d="M52 0l722 1489h1108v-160h-718v-503h672v-160h-672v-506h730v-160h-911v422h-534l-199 -422h-198zM524 582h459v747h-107zM1245 1641l178 337h200l-227 -337h-151z" />
    <glyph glyph-name="uni01FD" unicode="&#x1fd;" horiz-adv-x="1893" 
d="M1327 -23q-148 0 -259.5 61t-165.5 166h-6q-34 -96 -150.5 -163t-259.5 -67q-165 0 -273 92t-108 251q0 53 13.5 97t35.5 75.5t57 56.5t69 40.5t82 28t86.5 19t89.5 12.5q27 3 63 7.5t56 6.5t46 6t39.5 7t30 8t24.5 10.5t15.5 14t10.5 18.5t3 24v5q0 109 -59.5 168
t-175.5 59q-112 0 -185 -48.5t-106 -119.5l-163 58q31 73 82 126.5t112.5 81.5t123.5 41t130 13q47 0 91.5 -6.5t98 -24t99.5 -55.5t76 -93q125 179 359 179q73 0 139.5 -17.5t129.5 -59.5t109 -105t74 -159.5t28 -217.5v-73h-811q6 -176 101 -272.5t248 -96.5
q103 0 174.5 44t104.5 130l166 -46q-40 -129 -158.5 -205.5t-286.5 -76.5zM512 128q146 0 230 82t84 194v157q-5 -6 -15 -11t-26 -10t-32.5 -9t-39 -8t-40 -7t-42 -6.5t-38.5 -5t-36 -4t-28 -3.5q-55 -7 -97 -18.5t-79 -32.5t-57 -56t-20 -82q0 -87 65 -133.5t171 -46.5z
M978 649h637q0 144 -84 236t-222 92q-141 0 -231.5 -96t-99.5 -232zM855 1268l178 338h200l-226 -338h-152z" />
    <glyph glyph-name="uni01FE" unicode="&#x1fe;" horiz-adv-x="1559" 
d="M314 -61l-110 76l110 163q-192 211 -192 567q0 174 49.5 318t136.5 241.5t208.5 151.5t263.5 54q204 0 361 -108l98 146l111 -76l-107 -159q194 -212 194 -568q0 -174 -49 -318t-136.5 -241.5t-208.5 -151.5t-263 -54q-207 0 -364 109zM1263 745q0 260 -121 419
l-630 -932q116 -84 268 -84q211 0 347 158t136 439zM415 328l629 932q-114 81 -264 81q-211 0 -347 -157.5t-136 -438.5q0 -258 118 -417zM701 1641l178 337h200l-227 -337h-151z" />
    <glyph glyph-name="uni01FF" unicode="&#x1ff;" horiz-adv-x="1221" 
d="M276 -61l-110 76l80 118q-141 160 -141 420q0 261 139 420t367 159q147 0 262 -70l72 107l111 -75l-80 -119q141 -162 141 -422q0 -259 -139.5 -417.5t-366.5 -158.5q-147 0 -262 70zM611 131q84 0 149 34t104.5 93t60 134t20.5 161q0 166 -68 276l-438 -650
q73 -48 172 -48zM344 279l439 650q-73 48 -172 48q-83 0 -148.5 -34.5t-105.5 -94t-60.5 -134.5t-20.5 -161q0 -163 68 -274zM532 1268l178 338h201l-227 -338h-152z" />
    <glyph glyph-name="uni0200" unicode="&#x200;" horiz-adv-x="1384" 
d="M241 0h-189l547 1489h186l547 -1489h-189l-150 422h-602zM448 582h489l-239 672h-11zM775 1641l-177 337h218l109 -337h-150zM467 1641l-240 337h214l177 -337h-151z" />
    <glyph glyph-name="uni0201" unicode="&#x201;" horiz-adv-x="1154" 
d="M486 -26q-165 0 -273 92t-108 251q0 53 13.5 97t35.5 75.5t57 56t69 40t82 28t86 19t90 13.5q28 4 63 8t56 6t46 5.5t39.5 6.5t30.5 8t24 10.5t15.5 14t10.5 19t3 24.5v5q0 109 -59 168t-176 59q-113 0 -185.5 -48.5t-105.5 -119.5l-163 58q31 73 82 126.5t112.5 81.5
t123.5 41t130 13q35 0 68 -3t76 -13.5t79 -27.5t72 -47.5t61.5 -70.5t41 -100.5t15.5 -133.5v-736h-172v151h-9q-15 -30 -40 -59t-64.5 -56.5t-98.5 -44.5t-128 -17zM512 128q146 0 230 82t84 194v157q-5 -6 -15 -11t-26 -10t-32.5 -9t-39 -8t-40 -7t-42 -6.5t-38.5 -5
t-36 -4t-28 -3.5q-55 -7 -97 -18.5t-79 -32.5t-57 -56t-20 -82q0 -87 65 -133.5t171 -46.5zM679 1268l-177 338h218l109 -338h-150zM371 1268l-240 338h214l177 -338h-151z" />
    <glyph glyph-name="uni0202" unicode="&#x202;" horiz-adv-x="1384" 
d="M241 0h-189l547 1489h186l547 -1489h-189l-150 422h-602zM448 582h489l-239 672h-11zM390 1676q0 119 82 194.5t220 75.5q137 0 218.5 -75t81.5 -195h-160q0 64 -35 104.5t-105 40.5q-74 0 -108 -41t-34 -104h-160z" />
    <glyph glyph-name="uni0203" unicode="&#x203;" horiz-adv-x="1154" 
d="M486 -26q-165 0 -273 92t-108 251q0 53 13.5 97t35.5 75.5t57 56t69 40t82 28t86 19t90 13.5q28 4 63 8t56 6t46 5.5t39.5 6.5t30.5 8t24 10.5t15.5 14t10.5 19t3 24.5v5q0 109 -59 168t-176 59q-113 0 -185.5 -48.5t-105.5 -119.5l-163 58q31 73 82 126.5t112.5 81.5
t123.5 41t130 13q35 0 68 -3t76 -13.5t79 -27.5t72 -47.5t61.5 -70.5t41 -100.5t15.5 -133.5v-736h-172v151h-9q-15 -30 -40 -59t-64.5 -56.5t-98.5 -44.5t-128 -17zM512 128q146 0 230 82t84 194v157q-5 -6 -15 -11t-26 -10t-32.5 -9t-39 -8t-40 -7t-42 -6.5t-38.5 -5
t-36 -4t-28 -3.5q-55 -7 -97 -18.5t-79 -32.5t-57 -56t-20 -82q0 -87 65 -133.5t171 -46.5zM294 1303q0 120 82 195.5t220 75.5q137 0 218.5 -75.5t81.5 -195.5h-160q0 64 -35 105t-105 41q-73 0 -107.5 -41.5t-34.5 -104.5h-160z" />
    <glyph glyph-name="uni0204" unicode="&#x204;" horiz-adv-x="1224" 
d="M180 0v1489h899v-160h-718v-503h672v-160h-672v-506h730v-160h-911zM711 1641l-177 337h218l109 -337h-150zM403 1641l-240 337h214l177 -337h-151z" />
    <glyph glyph-name="uni0205" unicode="&#x205;" horiz-adv-x="1192" 
d="M625 -23q-240 0 -380 156.5t-140 416.5q0 259 138.5 420.5t364.5 161.5q73 0 139.5 -17.5t129.5 -59.5t109 -105t74 -159.5t28 -217.5v-73h-811q6 -176 100 -272.5t248 -96.5q103 0 175 44t105 130l166 -46q-40 -128 -159 -205t-287 -77zM277 649h636q0 144 -83.5 236
t-221.5 92q-141 0 -231.5 -95.5t-99.5 -232.5zM682 1268l-177 338h218l109 -338h-150zM374 1268l-240 338h214l177 -338h-151z" />
    <glyph glyph-name="uni0206" unicode="&#x206;" horiz-adv-x="1224" 
d="M180 0v1489h899v-160h-718v-503h672v-160h-672v-506h730v-160h-911zM326 1676q0 119 82 194.5t220 75.5q137 0 218.5 -75t81.5 -195h-160q0 64 -35 104.5t-105 40.5q-74 0 -108 -41t-34 -104h-160z" />
    <glyph glyph-name="uni0207" unicode="&#x207;" horiz-adv-x="1192" 
d="M625 -23q-240 0 -380 156.5t-140 416.5q0 259 138.5 420.5t364.5 161.5q73 0 139.5 -17.5t129.5 -59.5t109 -105t74 -159.5t28 -217.5v-73h-811q6 -176 100 -272.5t248 -96.5q103 0 175 44t105 130l166 -46q-40 -128 -159 -205t-287 -77zM277 649h636q0 144 -83.5 236
t-221.5 92q-141 0 -231.5 -95.5t-99.5 -232.5zM297 1303q0 120 82 195.5t220 75.5q137 0 218.5 -75.5t81.5 -195.5h-160q0 64 -35 105t-105 41q-73 0 -107.5 -41.5t-34.5 -104.5h-160z" />
    <glyph glyph-name="uni0208" unicode="&#x208;" horiz-adv-x="541" 
d="M361 1489v-1489h-181v1489h181zM353 1641l-177 337h218l109 -337h-150zM45 1641l-240 337h214l177 -337h-151z" />
    <glyph glyph-name="uni0209" unicode="&#x209;" horiz-adv-x="485" 
d="M157 0v1117h172v-1117h-172zM327 1268l-177 338h218l109 -338h-150zM19 1268l-240 338h214l177 -338h-151z" />
    <glyph glyph-name="uni020A" unicode="&#x20a;" horiz-adv-x="541" 
d="M361 1489v-1489h-181v1489h181zM-32 1676q0 119 82.5 194.5t220.5 75.5q137 0 218 -75t81 -195h-160q0 64 -34.5 104.5t-104.5 40.5q-74 0 -108.5 -41t-34.5 -104h-160z" />
    <glyph glyph-name="uni020B" unicode="&#x20b;" horiz-adv-x="485" 
d="M157 0v1117h172v-1117h-172zM-58 1303q0 120 82 195.5t220 75.5q137 0 218.5 -75.5t81.5 -195.5h-160q0 64 -35 105t-105 41q-73 0 -107.5 -41.5t-34.5 -104.5h-160z" />
    <glyph glyph-name="uni020C" unicode="&#x20c;" horiz-adv-x="1559" 
d="M1437 745q0 -174 -49 -318t-136.5 -241.5t-208.5 -151.5t-263 -54t-263.5 54t-208.5 151.5t-136.5 241.5t-49.5 318t49.5 318t136.5 241.5t208.5 151.5t263.5 54t263 -54t208.5 -151.5t136.5 -241.5t49 -318zM1263 745q0 281 -136 438.5t-347 157.5t-347 -157.5
t-136 -438.5t136 -439t347 -158t347 158t136 439zM863 1641l-178 337h218l109 -337h-149zM554 1641l-240 337h214l177 -337h-151z" />
    <glyph glyph-name="uni020D" unicode="&#x20d;" horiz-adv-x="1221" 
d="M611 -23q-227 0 -366.5 158.5t-139.5 417.5q0 261 139 420t367 159t367 -159t139 -420q0 -259 -139.5 -417.5t-366.5 -158.5zM611 131q84 0 149 34t104.5 93t60 134t20.5 161t-20.5 161t-60 134.5t-105 94t-148.5 34.5t-148.5 -34.5t-105.5 -94t-60.5 -134.5t-20.5 -161
t20.5 -161t60.5 -134t105 -93t149 -34zM694 1268l-178 338h219l109 -338h-150zM385 1268l-240 338h214l178 -338h-152z" />
    <glyph glyph-name="uni020E" unicode="&#x20e;" horiz-adv-x="1559" 
d="M1437 745q0 -174 -49 -318t-136.5 -241.5t-208.5 -151.5t-263 -54t-263.5 54t-208.5 151.5t-136.5 241.5t-49.5 318t49.5 318t136.5 241.5t208.5 151.5t263.5 54t263 -54t208.5 -151.5t136.5 -241.5t49 -318zM1263 745q0 281 -136 438.5t-347 157.5t-347 -157.5
t-136 -438.5t136 -439t347 -158t347 158t136 439zM477 1676q0 119 82.5 194.5t220.5 75.5q137 0 218 -75t81 -195h-160q0 64 -34.5 104.5t-104.5 40.5q-74 0 -108.5 -41t-34.5 -104h-160z" />
    <glyph glyph-name="uni020F" unicode="&#x20f;" horiz-adv-x="1221" 
d="M611 -23q-227 0 -366.5 158.5t-139.5 417.5q0 261 139 420t367 159t367 -159t139 -420q0 -259 -139.5 -417.5t-366.5 -158.5zM611 131q84 0 149 34t104.5 93t60 134t20.5 161t-20.5 161t-60 134.5t-105 94t-148.5 34.5t-148.5 -34.5t-105.5 -94t-60.5 -134.5t-20.5 -161
t20.5 -161t60.5 -134t105 -93t149 -34zM308 1303q0 119 82.5 195t220.5 76q137 0 218.5 -75.5t81.5 -195.5h-160q0 64 -35 105t-105 41q-74 0 -108.5 -41.5t-34.5 -104.5h-160z" />
    <glyph glyph-name="uni0210" unicode="&#x210;" horiz-adv-x="1309" 
d="M180 0v1489h504q128 0 226 -34t158.5 -95.5t91 -144t30.5 -182.5q0 -153 -70 -261.5t-209 -156.5l337 -615h-209l-315 583q-12 -1 -37 -1h-326v-582h-181zM361 745h320q173 0 252 74t79 214q0 296 -334 296h-317v-584zM729 1641l-178 337h218l110 -337h-150zM420 1641
l-240 337h214l178 -337h-152z" />
    <glyph glyph-name="uni0211" unicode="&#x211;" horiz-adv-x="762" 
d="M157 0v1117h166v-169h12q31 84 110.5 135.5t179.5 51.5q31 0 91 -3v-175q-48 12 -105 12q-122 0 -202 -74.5t-80 -187.5v-707h-172zM505 1268l-178 338h218l110 -338h-150zM196 1268l-240 338h214l178 -338h-152z" />
    <glyph glyph-name="uni0212" unicode="&#x212;" horiz-adv-x="1309" 
d="M180 0v1489h504q128 0 226 -34t158.5 -95.5t91 -144t30.5 -182.5q0 -153 -70 -261.5t-209 -156.5l337 -615h-209l-315 583q-12 -1 -37 -1h-326v-582h-181zM361 745h320q173 0 252 74t79 214q0 296 -334 296h-317v-584zM343 1676q0 119 82.5 194.5t220.5 75.5
q137 0 218 -75t81 -195h-160q0 64 -34.5 104.5t-104.5 40.5q-74 0 -108.5 -41t-34.5 -104h-160z" />
    <glyph glyph-name="uni0213" unicode="&#x213;" horiz-adv-x="762" 
d="M157 0v1117h166v-169h12q31 84 110.5 135.5t179.5 51.5q31 0 91 -3v-175q-48 12 -105 12q-122 0 -202 -74.5t-80 -187.5v-707h-172zM119 1303q0 119 82.5 195t220.5 76q137 0 218 -75.5t81 -195.5h-160q0 64 -34.5 105t-104.5 41q-74 0 -108.5 -41.5t-34.5 -104.5h-160z
" />
    <glyph glyph-name="uni0214" unicode="&#x214;" horiz-adv-x="1518" 
d="M1158 1489h180v-986q0 -232 -159.5 -380.5t-419.5 -148.5t-419.5 148.5t-159.5 380.5v986h181v-971q0 -167 107 -271t291 -104t291.5 104.5t107.5 270.5v971zM842 1641l-177 337h218l109 -337h-150zM534 1641l-240 337h214l177 -337h-151z" />
    <glyph glyph-name="uni0215" unicode="&#x215;" horiz-adv-x="1189" 
d="M861 457v660h172v-1117h-172v189h-12q-42 -91 -126.5 -147.5t-204.5 -56.5q-163 0 -262 107.5t-99 314.5v710h172v-698q0 -121 68 -194.5t176 -73.5q50 0 99.5 19t92.5 55t69.5 96.5t26.5 135.5zM679 1268l-177 338h218l109 -338h-150zM371 1268l-240 338h214l177 -338
h-151z" />
    <glyph glyph-name="uni0216" unicode="&#x216;" horiz-adv-x="1518" 
d="M1158 1489h180v-986q0 -232 -159.5 -380.5t-419.5 -148.5t-419.5 148.5t-159.5 380.5v986h181v-971q0 -167 107 -271t291 -104t291.5 104.5t107.5 270.5v971zM457 1676q0 119 82 194.5t220 75.5q137 0 218.5 -75t81.5 -195h-160q0 64 -35 104.5t-105 40.5q-74 0 -108 -41
t-34 -104h-160z" />
    <glyph glyph-name="uni0217" unicode="&#x217;" horiz-adv-x="1189" 
d="M861 457v660h172v-1117h-172v189h-12q-42 -91 -126.5 -147.5t-204.5 -56.5q-163 0 -262 107.5t-99 314.5v710h172v-698q0 -121 68 -194.5t176 -73.5q50 0 99.5 19t92.5 55t69.5 96.5t26.5 135.5zM294 1303q0 120 82 195.5t220 75.5q137 0 218.5 -75.5t81.5 -195.5h-160
q0 64 -35 105t-105 41q-73 0 -107.5 -41.5t-34.5 -104.5h-160z" />
    <glyph glyph-name="uni0218" unicode="&#x218;" horiz-adv-x="1306" 
d="M995 1117q-13 108 -105 170.5t-230 62.5q-147 0 -237.5 -69.5t-90.5 -177.5q0 -46 20 -84.5t48.5 -63.5t71 -46.5t75 -32t73.5 -21.5l151 -40q58 -15 104 -31.5t108.5 -50.5t104.5 -75.5t72 -107.5t30 -146q0 -187 -144 -308.5t-394 -121.5q-237 0 -380 112t-156 298h187
q11 -121 109 -184t240 -63q157 0 260 74.5t103 195.5q0 43 -16.5 78.5t-42 60t-66.5 46t-79.5 35t-91.5 28.5l-184 52q-378 109 -378 387q0 122 68 218t183.5 147t257.5 51q215 0 356 -111.5t147 -281.5h-174zM484 -521l82 377h176l-124 -377h-134z" />
    <glyph glyph-name="uni0219" unicode="&#x219;" horiz-adv-x="1070" 
d="M948 867l-154 -44q-62 160 -241 160q-103 0 -171 -47t-68 -119q0 -63 45 -100t147 -62l166 -41q297 -73 297 -303q0 -146 -121.5 -240t-315.5 -94q-173 0 -283.5 75t-140.5 216l163 40q47 -180 258 -180q117 0 189.5 50.5t72.5 124.5q0 119 -166 157l-186 43
q-296 69 -296 306q0 141 116 232t294 91q305 0 395 -265zM377 -495l81 377h176l-123 -377h-134z" />
    <glyph glyph-name="uni021A" unicode="&#x21a;" horiz-adv-x="1314" 
d="M99 1329v160h1117v-160h-468v-1329h-181v1329h-468zM487 -495l82 377h176l-124 -377h-134z" />
    <glyph glyph-name="uni021B" unicode="&#x21b;" horiz-adv-x="744" 
d="M643 1117v-145h-239v-652q0 -99 40.5 -134t108.5 -35q30 0 75 9l35 -154q-54 -21 -128 -21q-56 0 -108.5 18t-96.5 52.5t-70.5 91t-26.5 126.5v699h-169v145h169v268h171v-268h239zM246 -495l81 377h176l-123 -377h-134z" />
    <glyph glyph-name="uni021C" unicode="&#x21c;" horiz-adv-x="1291" 
d="M221 337v152q179 54 305.5 109t221 124t140.5 154t46 189q0 132 -76 204t-217 72q-138 0 -221 -65t-83 -171h-206q0 183 142.5 294t367.5 111q222 0 360.5 -113t138.5 -313q0 -198 -151 -365q175 -114 175 -393q0 -100 -24 -185.5t-67 -153.5t-109.5 -125t-142.5 -100.5
t-175.5 -81t-200.5 -64.5t-224 -52v165q146 29 255 63t202.5 84t152 114t91 151.5t32.5 198.5q0 195 -87 269q-247 -187 -646 -272z" />
    <glyph glyph-name="uni021D" unicode="&#x21d;" horiz-adv-x="1105" 
d="M218 209v149q258 62 396.5 172t138.5 254q0 91 -51 139.5t-148 48.5q-101 0 -161.5 -52t-60.5 -140h-198q0 161 115.5 256.5t311.5 95.5q181 0 287 -91.5t106 -246.5q0 -153 -118 -285q139 -107 139 -332q0 -514 -757 -613v157q297 65 426.5 174t129.5 294q0 135 -61 212
q-194 -135 -495 -192z" />
    <glyph glyph-name="uni021E" unicode="&#x21e;" horiz-adv-x="1515" 
d="M180 0v1489h181v-663h794v663h180v-1489h-180v666h-794v-666h-181zM614 1940l151 -203l151 203h163v-11l-235 -303h-157l-236 303v11h163z" />
    <glyph glyph-name="uni021F" unicode="&#x21f;" horiz-adv-x="1210" 
d="M329 672v-672h-172v1489h172v-546h14q85 189 329 189q177 0 279 -106.5t102 -315.5v-710h-172v698q0 132 -68.5 205.5t-189.5 73.5q-130 0 -212 -81t-82 -224zM93 1937l151 -203l152 203h163v-11l-236 -303h-157l-236 303v11h163z" />
    <glyph glyph-name="uni0220" unicode="&#x220;" horiz-adv-x="1291" 
d="M1175 -416h-200v1434q0 326 -347 326q-174 0 -311 -75v-1269h-198v1489h198v-60q150 81 329 81q105 0 199 -31.5t168.5 -90.5t118 -155t43.5 -215v-1434z" />
    <glyph glyph-name="uni0221" unicode="&#x221;" horiz-adv-x="1472" 
d="M579 -23q-211 0 -342.5 157.5t-131.5 421.5q0 262 132 419t345 157q35 0 66.5 -4t58 -14t47 -18.5t40.5 -25t32 -26t27.5 -29.5t20.5 -26.5t18 -27t13 -21.5h14v549h172v-1409q79 31 151 31q122 0 200.5 -73t78.5 -192t-79.5 -192t-213.5 -73q-111 0 -181.5 49.5
t-102.5 130.5l-141 -142l-111 113l227 233v207h-14q-45 -72 -79 -105q-95 -90 -247 -90zM602 131q152 0 236 117t84 311q0 192 -83 305t-237 113q-106 0 -180.5 -56t-110 -149t-35.5 -213q0 -122 36 -217t111 -153t179 -58zM1091 -91v-28q0 -71 39.5 -111.5t97.5 -40.5
q52 0 84 33t32 84q0 46 -26.5 76t-72.5 37q-82 13 -154 -50z" />
    <glyph glyph-name="uni0222" unicode="&#x222;" horiz-adv-x="1291" 
d="M625 896h41q61 0 106 4.5t91 19t75 39.5t47.5 68t18.5 102q0 94 -46.5 146.5t-142.5 77.5v157q176 -10 285.5 -106t109.5 -275q0 -237 -205 -330q97 -56 151 -148t54 -215q0 -149 -74.5 -254t-197 -153.5t-281.5 -48.5h-23q-159 0 -281.5 48.5t-197 152.5t-74.5 252
q0 123 54.5 216.5t151.5 149.5q-206 95 -206 330q0 178 110.5 274.5t285.5 106.5v-157q-96 -25 -142.5 -77.5t-46.5 -146.5q0 -59 18.5 -102t47.5 -68t75 -39.5t91 -19t105 -4.5zM657 724h-23q-162 0 -254 -73t-92 -218q0 -144 91.5 -213t254.5 -69h23q164 0 255.5 69.5
t91.5 215.5q0 142 -92.5 215t-254.5 73z" />
    <glyph glyph-name="uni0223" unicode="&#x223;" horiz-adv-x="1291" 
d="M666 887q341 0 341 256q0 105 -47 166t-145 99v148q111 -5 198.5 -52.5t140.5 -141t53 -219.5q0 -241 -211 -342q100 -55 155.5 -147.5t55.5 -217.5q0 -113 -42 -201t-116.5 -143t-174 -83.5t-217.5 -28.5h-23q-159 0 -281 48.5t-195.5 152.5t-73.5 252q0 126 55.5 219
t156.5 149q-212 100 -212 342q0 126 53.5 219.5t141 141t198.5 52.5v-148q-98 -38 -145 -99t-47 -166q0 -256 340 -256h41zM657 727h-23q-162 0 -255.5 -74.5t-93.5 -219.5q0 -144 93.5 -218.5t255.5 -74.5h23q161 0 255.5 75t94.5 221q0 142 -95 216.5t-255 74.5z" />
    <glyph glyph-name="uni0224" unicode="&#x224;" horiz-adv-x="1280" 
d="M122 1329v160h1027v-130l-803 -1199h527q136 0 216 -81t80 -213v-87h-162v55q0 72 -31.5 119t-102.5 47h-742v131l803 1198h-812z" />
    <glyph glyph-name="uni0225" unicode="&#x225;" horiz-adv-x="1105" 
d="M867 -233v56q0 177 -143 177h-596v145l628 812h-640v160h861v-137l-625 -820h372q138 0 217.5 -83t79.5 -211v-99h-154z" />
    <glyph glyph-name="uni0226" unicode="&#x226;" horiz-adv-x="1384" 
d="M241 0h-189l547 1489h186l547 -1489h-189l-150 422h-602zM448 582h489l-239 672h-11zM692 1676q-50 0 -86 34t-36 82t36 82t86 34t86.5 -34t36.5 -82t-36.5 -82t-86.5 -34z" />
    <glyph glyph-name="uni0227" unicode="&#x227;" horiz-adv-x="1154" 
d="M486 -26q-165 0 -273 92t-108 251q0 53 13.5 97t35.5 75.5t57 56t69 40t82 28t86 19t90 13.5q28 4 63 8t56 6t46 5.5t39.5 6.5t30.5 8t24 10.5t15.5 14t10.5 19t3 24.5v5q0 109 -59 168t-176 59q-113 0 -185.5 -48.5t-105.5 -119.5l-163 58q31 73 82 126.5t112.5 81.5
t123.5 41t130 13q35 0 68 -3t76 -13.5t79 -27.5t72 -47.5t61.5 -70.5t41 -100.5t15.5 -133.5v-736h-172v151h-9q-15 -30 -40 -59t-64.5 -56.5t-98.5 -44.5t-128 -17zM512 128q146 0 230 82t84 194v157q-5 -6 -15 -11t-26 -10t-32.5 -9t-39 -8t-40 -7t-42 -6.5t-38.5 -5
t-36 -4t-28 -3.5q-55 -7 -97 -18.5t-79 -32.5t-57 -56t-20 -82q0 -87 65 -133.5t171 -46.5zM596 1303q-50 0 -86 34.5t-36 82.5t36 82t86 34t86.5 -34t36.5 -82t-36.5 -82.5t-86.5 -34.5z" />
    <glyph glyph-name="uni0228" unicode="&#x228;" horiz-adv-x="1224" 
d="M180 0v1489h899v-160h-718v-503h672v-160h-672v-506h730v-160h-409l-10 -52q65 -10 108 -52t43 -120q0 -96 -79 -154t-226 -58l-6 113q157 0 157 93q0 48 -34.5 67t-122.5 26l28 137h-360z" />
    <glyph glyph-name="uni0229" unicode="&#x229;" horiz-adv-x="1192" 
d="M663 -23l-6 -29q65 -10 108.5 -52t43.5 -120q0 -96 -79.5 -154t-226.5 -58l-6 113q72 0 115 22.5t43 70.5t-35 67t-123 26l25 122q-195 33 -306 184t-111 381q0 259 138.5 420.5t364.5 161.5q73 0 139.5 -17.5t129.5 -59.5t109 -105t74 -159.5t28 -217.5v-73h-811
q6 -176 100 -272.5t248 -96.5q103 0 175 44t105 130l166 -46q-37 -121 -145.5 -197t-262.5 -85zM277 649h636q0 144 -83.5 236t-221.5 92q-141 0 -231.5 -95.5t-99.5 -232.5z" />
    <glyph glyph-name="uni022A" unicode="&#x22a;" horiz-adv-x="1559" 
d="M1437 745q0 -174 -49 -318t-136.5 -241.5t-208.5 -151.5t-263 -54t-263.5 54t-208.5 151.5t-136.5 241.5t-49.5 318t49.5 318t136.5 241.5t208.5 151.5t263.5 54t263 -54t208.5 -151.5t136.5 -241.5t49 -318zM1263 745q0 281 -136 438.5t-347 157.5t-347 -157.5
t-136 -438.5t136 -439t347 -158t347 158t136 439zM1120 2234v-145h-681v145h681zM570 1676q-46 0 -81 35t-35 81q0 49 34.5 82.5t81.5 33.5q50 0 83.5 -33t33.5 -83q0 -47 -34 -81.5t-83 -34.5zM989 1676q-46 0 -81 35t-35 81q0 49 34.5 82.5t81.5 33.5q50 0 83 -33t33 -83
q0 -47 -33.5 -81.5t-82.5 -34.5z" />
    <glyph glyph-name="uni022B" unicode="&#x22b;" horiz-adv-x="1221" 
d="M611 -23q-227 0 -366.5 158.5t-139.5 417.5q0 261 139 420t367 159t367 -159t139 -420q0 -259 -139.5 -417.5t-366.5 -158.5zM611 131q84 0 149 34t104.5 93t60 134t20.5 161t-20.5 161t-60 134.5t-105 94t-148.5 34.5t-148.5 -34.5t-105.5 -94t-60.5 -134.5t-20.5 -161
t20.5 -161t60.5 -134t105 -93t149 -34zM951 1862v-146h-680v146h680zM401 1303q-46 0 -81 35.5t-35 81.5q0 49 34.5 82.5t81.5 33.5q50 0 83.5 -33t33.5 -83q0 -47 -34 -82t-83 -35zM820 1303q-46 0 -81 35.5t-35 81.5q0 49 34.5 82.5t81.5 33.5q50 0 83.5 -33t33.5 -83
q0 -47 -34 -82t-83 -35z" />
    <glyph glyph-name="uni022C" unicode="&#x22c;" horiz-adv-x="1559" 
d="M1437 745q0 -174 -49 -318t-136.5 -241.5t-208.5 -151.5t-263 -54t-263.5 54t-208.5 151.5t-136.5 241.5t-49.5 318t49.5 318t136.5 241.5t208.5 151.5t263.5 54t263 -54t208.5 -151.5t136.5 -241.5t49 -318zM1263 745q0 281 -136 438.5t-347 157.5t-347 -157.5
t-136 -438.5t136 -439t347 -158t347 158t136 439zM1123 2100v-151h-684v151h684zM972 1847l87 -23q0 -76 -48 -129.5t-121 -53.5q-36 0 -67.5 11.5t-51 26t-46.5 26t-56 11.5q-32 0 -55 -27t-23 -63l-88 23q0 74 48 130.5t118 56.5q46 0 113 -36.5t108 -36.5q34 0 58 24
t24 60z" />
    <glyph glyph-name="uni022D" unicode="&#x22d;" horiz-adv-x="1221" 
d="M611 -23q-227 0 -366.5 158.5t-139.5 417.5q0 261 139 420t367 159t367 -159t139 -420q0 -259 -139.5 -417.5t-366.5 -158.5zM611 131q84 0 149 34t104.5 93t60 134t20.5 161t-20.5 161t-60 134.5t-105 94t-148.5 34.5t-148.5 -34.5t-105.5 -94t-60.5 -134.5t-20.5 -161
t20.5 -161t60.5 -134t105 -93t149 -34zM838 1530l134 -11q0 -111 -63.5 -179.5t-157.5 -68.5q-45 0 -83 14.5t-60 32t-55 32t-70 14.5q-39 0 -67.5 -33t-28.5 -77l-131 6q0 110 63 181.5t155 71.5q56 0 134.5 -46.5t130.5 -46.5q41 0 70 32t29 78zM960 1786v-151h-684v151
h684z" />
    <glyph glyph-name="uni022E" unicode="&#x22e;" horiz-adv-x="1559" 
d="M1437 745q0 -174 -49 -318t-136.5 -241.5t-208.5 -151.5t-263 -54t-263.5 54t-208.5 151.5t-136.5 241.5t-49.5 318t49.5 318t136.5 241.5t208.5 151.5t263.5 54t263 -54t208.5 -151.5t136.5 -241.5t49 -318zM1263 745q0 281 -136 438.5t-347 157.5t-347 -157.5
t-136 -438.5t136 -439t347 -158t347 158t136 439zM780 1676q-50 0 -86.5 34t-36.5 82t36.5 82t86.5 34t86 -34t36 -82t-36 -82t-86 -34z" />
    <glyph glyph-name="uni022F" unicode="&#x22f;" horiz-adv-x="1221" 
d="M611 -23q-227 0 -366.5 158.5t-139.5 417.5q0 261 139 420t367 159t367 -159t139 -420q0 -259 -139.5 -417.5t-366.5 -158.5zM611 131q84 0 149 34t104.5 93t60 134t20.5 161t-20.5 161t-60 134.5t-105 94t-148.5 34.5t-148.5 -34.5t-105.5 -94t-60.5 -134.5t-20.5 -161
t20.5 -161t60.5 -134t105 -93t149 -34zM611 1303q-50 0 -86 34.5t-36 82.5t36 82t86 34t86 -34t36 -82t-36 -82.5t-86 -34.5z" />
    <glyph glyph-name="uni0230" unicode="&#x230;" horiz-adv-x="1559" 
d="M1437 745q0 -174 -49 -318t-136.5 -241.5t-208.5 -151.5t-263 -54t-263.5 54t-208.5 151.5t-136.5 241.5t-49.5 318t49.5 318t136.5 241.5t208.5 151.5t263.5 54t263 -54t208.5 -151.5t136.5 -241.5t49 -318zM1263 745q0 281 -136 438.5t-347 157.5t-347 -157.5
t-136 -438.5t136 -439t347 -158t347 158t136 439zM1120 2234v-145h-681v145h681zM780 1676q-50 0 -86.5 34t-36.5 82t36.5 82t86.5 34t86 -34t36 -82t-36 -82t-86 -34z" />
    <glyph glyph-name="uni0231" unicode="&#x231;" horiz-adv-x="1221" 
d="M611 -23q-227 0 -366.5 158.5t-139.5 417.5q0 261 139 420t367 159t367 -159t139 -420q0 -259 -139.5 -417.5t-366.5 -158.5zM611 131q84 0 149 34t104.5 93t60 134t20.5 161t-20.5 161t-60 134.5t-105 94t-148.5 34.5t-148.5 -34.5t-105.5 -94t-60.5 -134.5t-20.5 -161
t20.5 -161t60.5 -134t105 -93t149 -34zM954 1859v-146h-681v146h681zM614 1300q-50 0 -86 34.5t-36 82.5t36 82t86 34t86 -34t36 -82t-36 -82.5t-86 -34.5z" />
    <glyph glyph-name="uni0232" unicode="&#x232;" horiz-adv-x="1361" 
d="M52 1489h207l413 -695h17l414 695h206l-538 -875v-614h-180v614zM1021 1862v-146h-681v146h681z" />
    <glyph glyph-name="uni0233" unicode="&#x233;" horiz-adv-x="1140" 
d="M268 -419q-87 0 -125 20l43 152q101 -26 160.5 3.5t104.5 150.5l32 87l-413 1123h186l308 -890h12l308 890h187l-475 -1280q-96 -256 -328 -256zM911 1489v-145h-681v145h681z" />
    <glyph glyph-name="uni0234" unicode="&#x234;" horiz-adv-x="701" 
d="M329 1489v-1409q79 31 151 31q122 0 200.5 -73t78.5 -192t-80 -192t-214 -73q-111 0 -182 50.5t-103 132.5l-139 -145l-111 113l227 233v1524h172zM329 -89v-59q0 -50 40.5 -86.5t95.5 -36.5q52 0 84.5 33t32.5 84q0 52 -33.5 81t-91.5 29q-70 0 -128 -45z" />
    <glyph glyph-name="uni0235" unicode="&#x235;" horiz-adv-x="1565" 
d="M329 672v-672h-172v1117h166v-174h14q87 189 326 189q175 0 276.5 -107t101.5 -315v-461q75 30 152 30q122 0 200.5 -73t78.5 -191q0 -119 -80 -192t-214 -73q-111 0 -182 50.5t-103 132.5l-140 -145l-110 113l227 233v564q0 131 -68 205t-188 74q-126 0 -205.5 -81
t-79.5 -224zM1041 20q0 -50 41 -86t96 -36q52 0 84.5 33t32.5 84q0 52 -34 81t-92 29q-69 0 -128 -46v-59z" />
    <glyph glyph-name="uni0236" unicode="&#x236;" horiz-adv-x="992" 
d="M291 1385h172v-268h238v-145h-238v-496q71 30 151 30q136 0 210.5 -71.5t74.5 -184.5q0 -122 -81.5 -197.5t-218.5 -75.5q-112 0 -182.5 50t-102.5 132q-51 -51 -139 -144l-111 113q153 165 227 231v613h-169v145h169v268zM463 293v-46q0 -51 39 -86.5t97 -35.5
q52 0 87 30t35 86q0 111 -130 111q-49 0 -128 -59z" />
    <glyph glyph-name="uni0237" unicode="&#x237;" horiz-adv-x="485" 
d="M157 1117h172v-1198q0 -159 -81 -248.5t-239 -89.5h-35v160h32q151 0 151 178v1198z" />
    <glyph glyph-name="uni0238" unicode="&#x238;" horiz-adv-x="1847" 
d="M1745 564v-20q0 -251 -119 -407.5t-321 -156.5q-176 0 -281 122v-102h-183l-10 111q-107 -131 -288 -131q-202 0 -321.5 157t-119.5 407v20q0 259 117 413.5t319 154.5q177 0 285 -123v480h201v-480q108 123 285 123q202 0 319 -154.5t117 -413.5zM303 564v-20
q0 -118 25.5 -204t88.5 -140.5t160 -54.5q165 0 246 158v514q-80 149 -241 149q-143 0 -211 -110.5t-68 -291.5zM1545 544v20q0 87 -15.5 158t-48 126.5t-87.5 86.5t-129 31q-161 0 -241 -149v-514q81 -158 246 -158q73 0 127.5 30.5t86 85.5t46.5 125.5t15 157.5z" />
    <glyph glyph-name="uni0239" unicode="&#x239;" horiz-adv-x="1847" 
d="M823 -416v518q-105 -122 -280 -122q-202 0 -321.5 157t-119.5 407v20q0 259 117 413.5t319 154.5q184 0 293 -132l10 117h166l10 -117q109 132 292 132q202 0 319 -154.5t117 -413.5v-20q0 -251 -119 -407.5t-321 -156.5q-176 0 -281 122v-518h-201zM303 564v-20
q0 -118 25.5 -204t88.5 -140.5t160 -54.5q165 0 246 158v514q-80 149 -241 149q-143 0 -211 -110.5t-68 -291.5zM1545 544v20q0 87 -15.5 158t-48 126.5t-87.5 86.5t-129 31q-161 0 -241 -149v-514q81 -158 246 -158q73 0 127.5 30.5t86 85.5t46.5 125.5t15 157.5z" />
    <glyph glyph-name="uni023A" unicode="&#x23a;" horiz-adv-x="1384" 
d="M1143 1679l-210 -592l399 -1087h-189l-150 422h-296l-217 -611h-166l217 611h-140l-150 -422h-189l547 1489h186l64 -173l128 363h166zM588 582l174 491l-64 181h-11l-239 -672h140zM845 839l-92 -257h184z" />
    <glyph glyph-name="uni023B" unicode="&#x23b;" horiz-adv-x="1489" 
d="M337 -189l95 267q-146 95 -228 267t-82 400q0 174 49.5 318t136.5 241.5t208.5 151.5t263.5 54q79 0 155 -17l66 186h166l-86 -240q116 -61 194 -167t104 -248h-180q-35 166 -176 252l-392 -1104q75 -24 149 -24q154 0 270.5 83.5t148.5 233.5h180q-41 -225 -205.5 -355
t-393.5 -130q-107 0 -205 31l-72 -200h-166zM492 247l386 1085q-41 9 -98 9q-211 0 -347 -157.5t-136 -438.5q0 -169 51.5 -296t143.5 -202z" />
    <glyph glyph-name="uni023C" unicode="&#x23c;" horiz-adv-x="1143" 
d="M1036 1489l-171 -425q159 -97 185 -281h-171q-19 73 -75 125l-304 -758q54 -19 111 -19q101 0 172.5 52t95.5 143h171q-22 -153 -140 -251t-299 -98q-91 0 -169 26l-169 -422h-139l193 480q-106 73 -164 201.5t-58 290.5q0 257 138.5 418t364.5 161q70 0 140 -19l151 376
h137zM690 968q-38 9 -79 9q-151 0 -243 -114.5t-92 -303.5q0 -220 115 -338z" />
    <glyph glyph-name="uni023D" unicode="&#x23d;" horiz-adv-x="1152" 
d="M180 0v701h-229v134h229v654h181v-654h230v-134h-230v-541h692v-160h-873z" />
    <glyph glyph-name="uni023E" unicode="&#x23e;" horiz-adv-x="1314" 
d="M262 -189l305 860v658h-468v160h759l67 190h166l-67 -190h192v-160h-249l-219 -617v-712h-181v204l-139 -393h-166zM748 1179l53 150h-53v-150z" />
    <glyph glyph-name="uni023F" unicode="&#x23f;" horiz-adv-x="1070" 
d="M948 867l-154 -44q-62 160 -241 160q-103 0 -171 -47t-68 -119q0 -63 45 -100t147 -62l166 -41q297 -73 297 -303q0 -146 -121.5 -240t-315.5 -94q-56 0 -101 7q90 -160 129.5 -208.5t82.5 -48.5q61 0 137 69l67 -116q-39 -39 -94.5 -69t-109.5 -30q-91 0 -158.5 57
t-135.5 176l-181 315q-44 61 -60 139l163 40q47 -180 258 -180q117 0 189.5 50.5t72.5 124.5q0 119 -166 157l-186 43q-296 69 -296 306q0 141 116 232t294 91q305 0 395 -265z" />
    <glyph glyph-name="uni0240" unicode="&#x240;" horiz-adv-x="1102" 
d="M352 160h44q86 0 158.5 -31t118.5 -77.5t88 -101t71.5 -101t65 -77.5t71.5 -31q74 0 134 55l66 -116q-99 -99 -212 -99q-53 0 -97.5 23t-77 60t-63.5 81.5t-64 89.5t-70 82t-91 60t-119 23h-247v145l628 812h-640v160h861v-137z" />
    <glyph glyph-name="uni0241" unicode="&#x241;" horiz-adv-x="1105" 
d="M483 454h44q66 0 116.5 21t82 55t51.5 82.5t27.5 99t7.5 108.5v149q0 73 -13.5 134t-44.5 115.5t-89 85.5t-138 31q-108 0 -173 -63t-72 -169h-195q7 178 128 292.5t312 114.5q97 0 178 -28.5t138.5 -79t97 -119t58.5 -147.5t19 -167v-149q0 -96 -23.5 -182.5t-69.5 -158
t-119 -121t-166 -68.5v-290h-209v454h52z" />
    <glyph glyph-name="uni0242" unicode="&#x242;" horiz-adv-x="1105" 
d="M140 701q0 203 116 317t307 114q189 0 296 -109t107 -313q0 -155 -72 -254.5t-228 -124.5v-331h-201v448h94q209 0 209 252q0 125 -50.5 198.5t-157.5 73.5q-105 0 -162.5 -72.5t-57.5 -198.5h-200z" />
    <glyph glyph-name="uni0243" unicode="&#x243;" horiz-adv-x="1445" 
d="M294 0v352h-230v134h230v1003h521q223 0 339.5 -111t116.5 -284q0 -245 -241 -311v-15q53 -3 105 -29t96 -71t71 -116t27 -156q0 -86 -28.5 -156.5t-87 -125t-155.5 -84.5t-226 -30h-538zM474 160h358q167 0 246.5 65t79.5 171q0 117 -87.5 199.5t-229.5 82.5h-367v-192
h230v-134h-230v-192zM474 835h335q125 0 208 71.5t83 187.5q0 104 -71.5 169.5t-213.5 65.5h-341v-494z" />
    <glyph glyph-name="uni0244" unicode="&#x244;" horiz-adv-x="1518" 
d="M1524 864v-119h-186v-242q0 -232 -159.5 -380.5t-419.5 -148.5t-419.5 148.5t-159.5 380.5v242h-186v119h186v625h181v-625h797v625h180v-625h186zM1158 745h-797v-227q0 -167 107 -271t291 -104t291.5 104.5t107.5 270.5v227z" />
    <glyph glyph-name="uni0245" unicode="&#x245;" horiz-adv-x="1477" 
d="M1143 0l-406 1212l-400 -1212h-226l538 1489h180l541 -1489h-227z" />
    <glyph glyph-name="uni0246" unicode="&#x246;" horiz-adv-x="1224" 
d="M1027 1679l-55 -190h107v-160h-152l-146 -503h252v-160h-298l-146 -506h502v-160h-548l-54 -189h-166l54 189h-197v1489h627l54 190h166zM761 1329h-400v-503h254zM569 666h-208v-506h62z" />
    <glyph glyph-name="uni0247" unicode="&#x247;" horiz-adv-x="1192" 
d="M1036 1489l-171 -426q223 -139 223 -490v-73h-447l-141 -350q62 -19 125 -19q103 0 175 44t105 130l166 -46q-40 -128 -159 -205t-287 -77q-101 0 -182 28l-170 -424h-139l193 481q-107 73 -164.5 198.5t-57.5 289.5q0 259 138.5 420.5t364.5 161.5q67 0 140 -19l151 376
h137zM562 649l127 319q-37 9 -81 9q-141 0 -231.5 -95.5t-99.5 -232.5h285zM503 500h-226q6 -186 111 -283zM804 910l-104 -261h213q0 168 -109 261z" />
    <glyph glyph-name="uni0248" unicode="&#x248;" horiz-adv-x="1111" 
d="M751 1489h180v-538h230v-134h-230v-392q0 -212 -114 -328.5t-311 -116.5q-186 0 -304 100t-118 269h178q0 -94 68 -151.5t176 -57.5q118 0 181.5 73.5t63.5 211.5v392h-230v134h230v538z" />
    <glyph glyph-name="uni0249" unicode="&#x249;" horiz-adv-x="485" 
d="M157 1117h172v-401h232v-134h-232v-663q0 -159 -81 -248.5t-239 -89.5h-35v160h32q151 0 151 178v663h-236v134h236v401zM241 1303q-50 0 -86 34.5t-36 82.5t36 82t86 34t86.5 -34t36.5 -82t-36.5 -82.5t-86.5 -34.5z" />
    <glyph glyph-name="uni024A" unicode="&#x24a;" horiz-adv-x="1597" 
d="M1379 1489v-1608q0 -152 163 -152q25 0 55 6v-145q-26 -9 -99 -9q-127 0 -209 80t-82 220v355h-11q-57 -123 -174 -191t-269 -68q-138 0 -255.5 57t-200 158t-129 245.5t-46.5 313.5q0 219 79 392t223 270t329 97q153 0 270.5 -66t172.5 -184h17v229h166zM753 148
q120 0 209.5 46t142.5 129t79 189t26 236q0 125 -28 232t-82.5 190t-142.5 130t-201 47q-136 0 -240 -77.5t-160 -213.5t-56 -308q0 -274 126 -437t327 -163z" />
    <glyph glyph-name="uni024B" unicode="&#x24b;" horiz-adv-x="1309" 
d="M1210 -419q-127 0 -209 80t-82 220v291h-14q-45 -72 -79 -105q-95 -90 -247 -90q-211 0 -342.5 157.5t-131.5 421.5q0 262 132 419t345 157q35 0 66.5 -4t58 -14t47 -18.5t40.5 -25t32 -26t27.5 -29.5t20.5 -26.5t18 -27t13 -21.5h20v177h166v-1236q0 -152 163 -152
q25 0 55 6v-145q-26 -9 -99 -9zM602 131q152 0 236 117t84 311q0 192 -83 305t-237 113q-106 0 -180.5 -56t-110 -149t-35.5 -213q0 -122 36 -217t111 -153t179 -58z" />
    <glyph glyph-name="uni024C" unicode="&#x24c;" horiz-adv-x="1326" 
d="M198 0v582h-175v163h175v744h503q128 0 226 -34t158.5 -95.5t91 -144t30.5 -182.5q0 -153 -69.5 -261.5t-208.5 -156.5l336 -615h-209l-314 583q-12 -1 -38 -1h-326v-582h-180zM378 745h320q332 0 332 288q0 296 -335 296h-317v-584z" />
    <glyph glyph-name="uni024D" unicode="&#x24d;" horiz-adv-x="762" 
d="M157 0v468h-233v134h233v515h166v-169h12q31 84 110.5 135.5t179.5 51.5q31 0 91 -3v-175q-48 12 -105 12q-122 0 -202 -74.5t-80 -187.5v-105h235v-134h-235v-468h-172z" />
    <glyph glyph-name="uni024E" unicode="&#x24e;" horiz-adv-x="1367" 
d="M1361 1184v-119h-313l-277 -451v-614h-180v614l-278 451h-307v119h234l-188 305h207l182 -305h480l182 305h206l-188 -305h240zM511 1065l161 -271h17l161 271h-339z" />
    <glyph glyph-name="uni024F" unicode="&#x24f;" horiz-adv-x="1140" 
d="M1056 797v-134h-153l-307 -826q-96 -256 -328 -256q-87 0 -125 20l43 152q101 -26 160.5 3.5t104.5 150.5l32 87l-246 669h-158v134h109l-118 320h186l111 -320h407l110 320h187l-119 -320h104zM727 663h-314l151 -436h12z" />
    <glyph glyph-name="uni0250" unicode="&#x250;" horiz-adv-x="1154" 
d="M669 1143q165 0 273 -92t108 -251q0 -53 -13.5 -97t-35.5 -75.5t-57 -56t-69 -40t-82 -28t-86 -19t-90 -13.5q-28 -4 -63 -8t-56 -6t-46 -5.5t-39.5 -6.5t-30.5 -8t-24 -10.5t-15.5 -14t-10.5 -19t-3 -24.5v-5q0 -109 59 -168t176 -59q113 0 185.5 48.5t105.5 119.5
l163 -58q-31 -73 -82 -126.5t-112.5 -81.5t-123.5 -41t-130 -13q-35 0 -68 3t-76 13.5t-79 27.5t-72 47.5t-61.5 70.5t-41 100.5t-15.5 133.5v736h172v-151h8q20 42 57.5 79t110.5 67.5t164 30.5zM643 989q-146 0 -230 -82t-84 -194v-157q5 6 15 11t26 10t32 9t38.5 8t40 7
t42.5 6.5t38.5 5t35.5 4t28 3.5q55 7 97 18.5t79.5 32.5t57.5 56t20 82q0 87 -65 133.5t-171 46.5z" />
    <glyph glyph-name="uni0251" unicode="&#x251;" horiz-adv-x="1312" 
d="M567 -23q-208 2 -335 164t-127 418q0 252 133 412.5t341 160.5q269 0 390 -306l64 291h160l-130 -558l144 -559h-160l-68 282h-2q-130 -308 -410 -305zM911 559v2q-11 52 -24.5 98.5t-41.5 108t-62 105t-87.5 74t-116.5 30.5q-133 0 -218 -118t-85 -303
q0 -184 80.5 -304.5t210.5 -120.5q62 0 115.5 31t89.5 76t66 106t46 111t27 101v3z" />
    <glyph glyph-name="uni0252" unicode="&#x252;" horiz-adv-x="1291" 
d="M1169 611v-50q0 -261 -112 -421t-312 -160t-306 151l-17 -131h-169v812q0 82 -20 112t-56 30q-7 0 -17 -1.5t-12 -1.5l-23 146q49 35 128 35q142 0 183 -157q106 157 312 157q197 0 309 -144t112 -377zM969 561v50q0 77 -15.5 140.5t-47 114t-85.5 78.5t-126 28
q-160 0 -241 -175v-484q81 -173 238 -173q73 0 127.5 33.5t86.5 92.5t47.5 133t15.5 162z" />
    <glyph glyph-name="uni0253" unicode="&#x253;" horiz-adv-x="1248" 
d="M669 -23q-195 0 -299 152q-8 13 -22 35l-5 8h-20v-172h-166v1210q0 140 82 220t209 80q73 0 99 -9v-145q-25 5 -55 5q-163 0 -163 -151v-270h14q0 1 13 21.5t18 27t20.5 26.5t27.5 29.5t32 26t40.5 25t47 18.5t58 14t66.5 4q213 0 345 -157t132 -419
q0 -264 -131.5 -421.5t-342.5 -157.5zM646 131q104 0 179 58t111 153t36 217q0 120 -35.5 213t-110 149t-180.5 56q-154 0 -237 -113t-83 -305q0 -194 84 -311t236 -117z" />
    <glyph glyph-name="uni0254" unicode="&#x254;" horiz-adv-x="1105" 
d="M93 343h189q9 -87 78.5 -145t174.5 -58q76 0 132.5 33t87.5 89.5t45.5 121t14.5 137.5v55q0 78 -15 146t-47 125.5t-89 91t-133 33.5q-114 0 -177 -71t-72 -191h-189q9 189 125.5 305.5t312.5 116.5q117 0 210 -44t151.5 -120.5t89 -176.5t30.5 -215v-55
q0 -147 -53.5 -268t-163.5 -197t-258 -76q-185 0 -310 108t-134 255z" />
    <glyph glyph-name="uni0255" unicode="&#x255;" horiz-adv-x="1143" 
d="M611 -23q-214 0 -351 142q-30 -29 -61.5 -60.5t-57.5 -59t-36 -37.5l-120 105q16 16 75.5 82.5t103.5 110.5q-59 129 -59 299q0 253 138.5 413t364.5 160q177 0 298.5 -96t143.5 -253h-171q-21 83 -91 138.5t-177 55.5q-151 0 -243 -114.5t-92 -303.5q0 -94 24 -179
q222 173 436 173q141 0 214.5 -68.5t73.5 -181.5q0 -147 -118 -236.5t-295 -89.5zM383 229q89 -98 228 -98q101 0 169.5 47t68.5 119q0 50 -36.5 77t-79.5 27q-141 0 -350 -172z" />
    <glyph glyph-name="uni0256" unicode="&#x256;" horiz-adv-x="1248" 
d="M1210 -419q-127 0 -209 80t-82 220v291h-14q-45 -72 -79 -105q-95 -90 -247 -90q-211 0 -342.5 157.5t-131.5 421.5q0 262 132 419t345 157q35 0 66.5 -4t58 -14t47 -18.5t40.5 -25t32 -26t27.5 -29.5t20.5 -26.5t18 -27t13 -21.5h14v549h172v-1608q0 -152 163 -152
q25 0 55 6v-145q-26 -9 -99 -9zM602 131q152 0 236 117t84 311q0 192 -83 305t-237 113q-106 0 -180.5 -56t-110 -149t-35.5 -213q0 -122 36 -217t111 -153t179 -58z" />
    <glyph glyph-name="uni0257" unicode="&#x257;" horiz-adv-x="1259" 
d="M579 -23q-211 0 -342.5 157.5t-131.5 421.5q0 262 132 419t345 157q35 0 66.5 -4t58 -14t47 -18.5t40.5 -25t32 -26t27.5 -29.5t20.5 -26.5t18 -27t13 -21.5h14v276q0 140 82.5 218.5t211.5 78.5q64 0 99 -12v-148q-15 6 -55 6q-79 0 -122.5 -31t-43.5 -112v-1216h-166
v172h-20q-45 -72 -79 -105q-95 -90 -247 -90zM602 131q152 0 236 117t84 311q0 192 -83 305t-237 113q-106 0 -180.5 -56t-110 -149t-35.5 -213q0 -122 36 -217t111 -153t179 -58z" />
    <glyph glyph-name="uni0258" unicode="&#x258;" horiz-adv-x="1105" 
d="M515 -20q-269 0 -413 212l122 93q111 -145 285 -145q138 0 219 95.5t86 259.5h-724v87q0 258 116 404t323 146q219 0 352.5 -157.5t133.5 -415.5v-41q0 -245 -136.5 -391.5t-363.5 -146.5zM809 655q-17 151 -85.5 234t-182.5 83q-109 0 -174 -77.5t-76 -225.5v-14h518z
" />
    <glyph glyph-name="uni0259" unicode="&#x259;" horiz-adv-x="1192" 
d="M567 1140q240 0 380.5 -157t140.5 -416t-138.5 -420.5t-364.5 -161.5q-73 0 -139.5 17.5t-129.5 59.5t-109 105t-74 159.5t-28 217.5v73h811q-6 176 -100.5 272.5t-248.5 96.5q-103 0 -174.5 -44t-104.5 -130l-166 46q40 129 158.5 205.5t286.5 76.5zM916 468h-637
q0 -144 84 -236t222 -92q141 0 231.5 95.5t99.5 232.5z" />
    <glyph glyph-name="uni025A" unicode="&#x25a;" horiz-adv-x="1477" 
d="M492 1103q181 0 306 -94t171 -254l195 36q9 -59 16.5 -96.5t20 -78t28 -62.5t39.5 -36.5t56 -14.5q49 0 61 3l26 -122q-72 -32 -128 -32q-60 0 -104 19.5t-71.5 57t-43.5 78.5t-28 98l-44 -9v-14v-44q0 -129 -40 -236.5t-106.5 -176.5t-151.5 -107t-176 -38
q-117 0 -205 40.5t-141 114.5t-79 170t-26 213v64l705 136q-31 103 -105.5 164t-183.5 61q-171 0 -282 -146l-122 93q144 213 413 213zM791 556l-523 -99v-29q0 -54 13.5 -103t41.5 -92t78 -68t117 -25q123 0 198 104t75 294v18z" />
    <glyph glyph-name="uni025B" unicode="&#x25b;" horiz-adv-x="1114" 
d="M675 582v-82h-134q-115 0 -185.5 -54t-70.5 -135q0 -79 76 -126.5t203 -47.5q121 0 188 46t89 143h180q-19 -159 -143.5 -252.5t-321.5 -93.5t-324 89.5t-127 233.5q0 37 10 72t33 71t68 65.5t108 47.5q-199 56 -199 244q0 153 117 241t311 88q191 0 309 -85.5
t139 -237.5h-181q-18 78 -87.5 123t-179.5 45q-114 0 -183.5 -48t-69.5 -126q0 -72 61 -113t180 -41h134v-67z" />
    <glyph glyph-name="uni025C" unicode="&#x25c;" horiz-adv-x="1178" 
d="M451 535v114h134q119 0 180 41t61 113q0 78 -69.5 126t-183.5 48q-110 0 -180 -45t-88 -123h-180q21 152 139 237.5t309 85.5q194 0 311 -88t117 -241q0 -187 -200 -244q63 -18 108.5 -47.5t68.5 -65.5t33 -71t10 -72q0 -144 -127 -233.5t-324 -89.5t-321.5 93.5
t-143.5 252.5h180q22 -97 88.5 -143t187.5 -46q127 0 203.5 47.5t76.5 126.5q0 81 -70.5 135t-185.5 54h-134v35z" />
    <glyph glyph-name="uni025D" unicode="&#x25d;" horiz-adv-x="1477" 
d="M451 535v114h134q119 0 180 41t61 113q0 78 -69.5 126t-183.5 48q-110 0 -180 -45t-88 -123h-180q21 152 139 237.5t309 85.5q157 0 265.5 -59.5t145.5 -166.5l183 37q9 -60 16.5 -97.5t20 -78.5t28 -63.5t39.5 -37t56 -14.5q41 0 61 5l26 -122q-61 -32 -128 -32
q-60 0 -104 19t-71.5 56.5t-43.5 78t-28 96.5l-43 -8q-28 -139 -195 -186q63 -18 108.5 -47.5t68.5 -65.5t33 -71t10 -72q0 -144 -127 -233.5t-324 -89.5t-321.5 93.5t-143.5 252.5h180q22 -97 88.5 -143t187.5 -46q127 0 203.5 47.5t76.5 126.5q0 81 -70.5 135t-185.5 54
h-134v35z" />
    <glyph glyph-name="uni025E" unicode="&#x25e;" horiz-adv-x="1152" 
d="M596 -20q-245 0 -374 157t-129 439q0 262 130 409t376 147q194 0 311 -88t117 -241q0 -188 -199 -244q63 -18 108 -47.5t68 -65.5t33 -71t10 -72q0 -144 -127 -233.5t-324 -89.5zM477 582v67h134q119 0 180 41t61 113q0 78 -67 126t-177 48q-170 0 -256.5 -105
t-86.5 -296q0 -209 83 -324t248 -115q122 0 196.5 47.5t74.5 126.5q0 81 -70.5 135t-185.5 54h-134v82z" />
    <glyph glyph-name="uni025F" unicode="&#x25f;" horiz-adv-x="485" 
d="M157 1117h172v-401h232v-134h-232v-663q0 -159 -81 -248.5t-239 -89.5h-35v160h32q151 0 151 178v663h-236v134h236v401z" />
    <glyph glyph-name="uni0260" unicode="&#x260;" horiz-adv-x="1256" 
d="M608 -442q-173 0 -285.5 62.5t-171.5 161.5l137 96q23 -31 32 -43t41 -42t61 -44t78.5 -27t107.5 -13q141 0 226 68.5t85 202.5v227h-14q-44 -71 -77 -102q-94 -88 -249 -88q-209 0 -341.5 146t-132.5 401q0 256 132 412t345 156q58 0 108 -14t80 -30t60.5 -47t40.5 -45
t29 -44q6 -8 8 -12h17v270q0 140 79.5 220t205.5 80q73 0 99 -9v-145q-25 5 -55 5q-163 0 -163 -151v-1242q0 -105 -37.5 -185t-104 -128.5t-152.5 -72.5t-189 -24zM602 172q154 0 237 104t83 291q0 186 -83.5 298t-236.5 112q-157 0 -241.5 -115.5t-84.5 -294.5
q0 -180 84.5 -287.5t241.5 -107.5z" />
    <glyph glyph-name="uni0261" unicode="&#x261;" horiz-adv-x="1248" 
d="M608 -442q-173 0 -285.5 62.5t-171.5 161.5l137 96q23 -31 32 -43t41 -42t61 -44t78.5 -27t107.5 -13q141 0 226 68.5t85 202.5v227h-14q-44 -71 -77 -102q-94 -88 -249 -88q-209 0 -341.5 146t-132.5 401q0 256 132 412t345 156q58 0 108 -14t80 -30t60.5 -47t40.5 -45
t29 -44q6 -8 8 -12h17v177h166v-1149q0 -105 -37.5 -185t-104 -128.5t-152.5 -72.5t-189 -24zM602 172q154 0 237 104t83 291q0 186 -83.5 298t-236.5 112q-157 0 -241.5 -115.5t-84.5 -294.5q0 -180 84.5 -287.5t241.5 -107.5z" />
    <glyph glyph-name="uni0262" unicode="&#x262;" horiz-adv-x="1291" 
d="M1129 553v-396q-21 -28 -57.5 -56.5t-92.5 -57t-138.5 -46t-177.5 -17.5q-231 0 -375.5 134.5t-144.5 348.5v162q0 211 144 344.5t370 133.5q219 0 336 -100.5t133 -266.5h-181q-13 102 -87.5 155.5t-200.5 53.5q-140 0 -238.5 -93t-98.5 -227v-162q0 -138 97.5 -230.5
t245.5 -92.5q103 0 181 27.5t113 56.5v169h-282v160h454z" />
    <glyph glyph-name="uni0263" unicode="&#x263;" horiz-adv-x="1218" 
d="M608 -442q-128 0 -200.5 63.5t-72.5 179.5q0 63 52 167l125 252l-442 897h189l351 -701l350 701h189l-439 -899l125 -250q41 -82 41 -167q0 -116 -70.5 -179.5t-197.5 -63.5zM612 18q-9 -18 -25 -48.5t-23 -44.5t-17.5 -35.5t-14.5 -34t-7.5 -27t-3.5 -27.5
q0 -34 24 -55.5t63 -21.5q38 0 62.5 22.5t24.5 54.5q0 34 -17.5 76.5t-65.5 140.5z" />
    <glyph glyph-name="uni0264" unicode="&#x264;" horiz-adv-x="1477" 
d="M239 855l-126 125q129 152 277 152q104 0 182 -75t167 -229q43 75 79.5 126t80 93.5t91.5 63.5t102 21q146 0 275 -152l-125 -125q-61 82 -119 82q-63 0 -110 -57t-161 -255q1 -3 4 -8.5t5 -8.5q148 -263 148 -401q0 -104 -71.5 -165.5t-198.5 -61.5q-126 0 -198.5 61.5
t-72.5 165.5q0 60 29 143.5t53 130t67 124.5q2 4 5.5 10t5.5 10q-5 10 -17.5 32t-18.5 34q-82 148 -124.5 197t-109.5 49q-58 0 -119 -82zM737 417q-68 -139 -68 -203q0 -28 17 -48.5t53 -20.5t53 20.5t17 48.5q0 58 -72 203z" />
    <glyph glyph-name="uni0265" unicode="&#x265;" horiz-adv-x="1210" 
d="M881 445v672h172v-1489h-172v547h-14q-85 -190 -329 -190q-177 0 -279 106.5t-102 315.5v710h172v-698q0 -132 69 -205.5t190 -73.5q130 0 211.5 81t81.5 224z" />
    <glyph glyph-name="uni0266" unicode="&#x266;" horiz-adv-x="1198" 
d="M329 672v-672h-172v1210q0 140 82 220t209 80q73 0 99 -9v-145q-25 5 -55 5q-169 0 -169 -151v-267h14q87 189 326 189q175 0 276.5 -107t101.5 -315v-710h-171v698q0 131 -68 205t-188 74q-126 0 -205.5 -81t-79.5 -224z" />
    <glyph glyph-name="uni0267" unicode="&#x267;" horiz-adv-x="1198" 
d="M329 672v-672h-172v1210q0 140 82 220t209 80q73 0 99 -9v-145q-25 5 -55 5q-169 0 -169 -151v-267h14q87 189 326 189q175 0 276.5 -107t101.5 -315v-829q0 -140 -82 -220t-208 -80q-73 0 -99 9v145q30 -6 55 -6q163 0 163 152v817q0 131 -68 205t-188 74
q-126 0 -205.5 -81t-79.5 -224z" />
    <glyph glyph-name="uni0268" unicode="&#x268;" horiz-adv-x="485" 
d="M157 0v527h-233v133h233v457h172v-457h235v-133h-235v-527h-172zM244 1303q-50 0 -86 34.5t-36 82.5t36 82t86 34t86.5 -34t36.5 -82t-36.5 -82.5t-86.5 -34.5z" />
    <glyph glyph-name="uni03B9" unicode="&#x3b9;" horiz-adv-x="544" 
d="M151 1117h172v-841q0 -122 128 -122q47 0 84 15v-163q-68 -21 -145 -21q-111 0 -175 69t-64 222v841z" />
    <glyph glyph-name="uni03B9" unicode="&#x269;" horiz-adv-x="544" 
d="M151 1117h172v-841q0 -122 128 -122q47 0 84 15v-163q-68 -21 -145 -21q-111 0 -175 69t-64 222v841z" />
    <glyph glyph-name="uni026A" unicode="&#x26a;" horiz-adv-x="733" 
d="M617 1082v-160h-152v-762h152v-160h-498v160h146v762h-146v160h498z" />
    <glyph glyph-name="uni026B" unicode="&#x26b;" horiz-adv-x="622" 
d="M399 1489v-696q22 -5 42 -5q41 0 70 32.5t29 78.5l131 -12q0 -111 -63 -179t-159 -68q-25 0 -50 5v-645h-172v728q-20 5 -42 5q-41 0 -68.5 -32t-27.5 -78l-134 5q0 110 63 181.5t158 71.5q25 0 51 -7v615h172z" />
    <glyph glyph-name="uni026C" unicode="&#x26c;" horiz-adv-x="858" 
d="M841 599h-216v-599h-171v599h-111q-124 0 -210 73.5t-86 194.5q0 114 79 189.5t211 75.5q63 0 117 -19v376h171v-730h216v-160zM454 861q0 51 -30.5 85t-88.5 34q-45 0 -76.5 -33.5t-31.5 -79.5q0 -44 34 -76t85 -32h108v102z" />
    <glyph glyph-name="uni026D" unicode="&#x26d;" horiz-adv-x="546" 
d="M329 1489v-1608q0 -152 163 -152q25 0 55 6v-145q-26 -9 -99 -9q-127 0 -209 80t-82 220v1608h172z" />
    <glyph glyph-name="uni026E" unicode="&#x26e;" horiz-adv-x="1294" 
d="M180 1489h172v-372h797v-131l-401 -483v-11q196 -20 313 -138.5t117 -314.5q0 -217 -140.5 -350t-362.5 -133q-229 0 -375 131l125 125q96 -96 253 -96q143 0 233 88t90 235q0 145 -89.5 229t-233.5 84h-140v145l373 448v12h-559v-957h-172v1489z" />
    <glyph glyph-name="uni026F" unicode="&#x26f;" horiz-adv-x="1780" 
d="M1623 1117v-1117h-166v175h-14q-36 -90 -114 -140t-186 -50q-211 0 -299 190h-12q-44 -89 -130.5 -139.5t-204.5 -50.5q-156 0 -248 97t-92 287v748h172v-748q0 -117 63.5 -173t163.5 -56q115 0 181 69.5t66 180.5v727h174v-765q0 -95 62 -153.5t160 -58.5
q103 0 178 79.5t75 199.5v698h171z" />
    <glyph glyph-name="uni0270" unicode="&#x270;" horiz-adv-x="1780" 
d="M1457 -419v594h-14q-36 -90 -114 -140t-186 -50q-211 0 -299 190h-12q-44 -89 -130.5 -139.5t-204.5 -50.5q-156 0 -248 97t-92 287v748h172v-748q0 -117 63.5 -173t163.5 -56q115 0 181 69.5t66 180.5v727h174v-765q0 -95 62 -153.5t160 -58.5q103 0 178 79.5t75 199.5
v698h171v-1536h-166z" />
    <glyph glyph-name="uni0271" unicode="&#x271;" horiz-adv-x="1780" 
d="M157 0v1117h166v-174h14q35 90 113.5 139.5t186.5 49.5q213 0 300 -189h11q44 89 130.5 139t204.5 50q156 0 248 -97t92 -287v-867q0 -140 -82 -220t-209 -80q-73 0 -99 9v145q30 -6 56 -6q163 0 163 152v867q0 117 -63.5 173t-163.5 56q-115 0 -181.5 -69.5
t-66.5 -180.5v-727h-174v765q0 95 -61.5 153.5t-159.5 58.5q-103 0 -178 -79.5t-75 -199.5v-698h-172z" />
    <glyph glyph-name="uni0272" unicode="&#x272;" horiz-adv-x="1233" 
d="M364 672v-791q0 -140 -82 -220t-209 -80q-73 0 -99 9v145q30 -6 55 -6q163 0 163 152v1236h166v-174h14q87 189 326 189q175 0 276.5 -107t101.5 -315v-710h-171v698q0 131 -68 205t-188 74q-126 0 -205.5 -81t-79.5 -224z" />
    <glyph glyph-name="uni0273" unicode="&#x273;" horiz-adv-x="1189" 
d="M329 672v-672h-172v1117h166v-174h14q87 189 326 189q175 0 276.5 -107t101.5 -315v-829q0 -152 163 -152q26 0 56 6v-145q-26 -9 -99 -9q-127 0 -209 80t-82 220v817q0 131 -68 205t-188 74q-126 0 -205.5 -81t-79.5 -224z" />
    <glyph glyph-name="uni0274" unicode="&#x274;" horiz-adv-x="1200" 
d="M1043 1117v-1117h-169l-531 797h-14v-797h-172v1117h166l534 -800h14v800h172z" />
    <glyph glyph-name="uni0275" unicode="&#x275;" horiz-adv-x="1221" 
d="M611 -23q-227 0 -366.5 158.5t-139.5 417.5q0 261 139 420t367 159t367 -159t139 -420q0 -259 -139.5 -417.5t-366.5 -158.5zM611 131q147 0 231 98.5t100 254.5h-662q16 -156 100 -254.5t231 -98.5zM281 633h660q-18 152 -102 248t-228 96t-228 -96t-102 -248z" />
    <glyph glyph-name="uni0276" unicode="&#x276;" horiz-adv-x="1850" 
d="M1684 157v-157h-651q-80 0 -198 -10t-172 -10q-224 0 -359 155.5t-135 393.5v24q0 156 59 280t171.5 197t260.5 73q56 0 175 -10.5t198 -10.5h651v-157h-587v-297h500v-160h-500v-311h587zM896 153v776q-184 14 -236 14q-139 0 -215 -112.5t-76 -277.5v-24
q0 -108 31.5 -194t99.5 -140.5t163 -54.5q62 0 233 13z" />
    <glyph glyph-name="uni0277" unicode="&#x277;" horiz-adv-x="1664" 
d="M832 1132q153 0 276.5 -36t205.5 -96t136.5 -142.5t78.5 -172.5t24 -188q0 -95 -21.5 -182.5t-66.5 -164.5t-125 -123.5t-185 -46.5q-240 0 -323 235q-83 -235 -323 -235q-105 0 -185 46.5t-125 123.5t-66.5 164.5t-21.5 182.5q0 98 24 188t78.5 172.5t136.5 142.5
t205.5 96t276.5 36zM832 972q-521 0 -521 -470q0 -69 11 -130t34.5 -115t67 -85.5t101.5 -31.5q91 0 149.5 80.5t58.5 250.5v189h198v-189q0 -170 58.5 -250.5t149.5 -80.5q58 0 101.5 31.5t67 85.5t34.5 115t11 130q0 470 -521 470z" />
    <glyph glyph-name="uni0278" unicode="&#x278;" horiz-adv-x="1291" 
d="M151 544v23q0 219 106 370t290 186v366h198v-366q184 -34 289.5 -185t105.5 -371v-23q0 -220 -105.5 -371t-289.5 -185v-384h-198v384q-184 35 -290 186t-106 370zM352 567v-23q0 -142 50 -246.5t145 -140.5v797q-95 -38 -145 -142.5t-50 -244.5zM745 954v-797
q95 36 145 140.5t50 246.5v23q0 140 -50 244.5t-145 142.5z" />
    <glyph glyph-name="uni0279" unicode="&#x279;" horiz-adv-x="762" 
d="M605 1117v-1117h-166v169h-11q-31 -83 -111 -134.5t-180 -51.5q-50 0 -90 2v175q48 -12 104 -12q122 0 202 74.5t80 187.5v707h172z" />
    <glyph glyph-name="uni027A" unicode="&#x27a;" horiz-adv-x="733" 
d="M102 -6v183q47 -8 93 -8q169 0 236 140v1227h200v-1536h-195l-3 114q-87 -134 -247 -134q-49 0 -84 14z" />
    <glyph glyph-name="uni027B" unicode="&#x27b;" horiz-adv-x="800" 
d="M724 -436q-126 0 -205.5 78t-79.5 218v309h-11q-31 -83 -111 -134.5t-180 -51.5q-50 0 -90 2v175q48 -12 104 -12q122 0 202 74.5t80 187.5v707h172v-1257q0 -157 163 -157q40 0 55 6v-134q-32 -11 -99 -11z" />
    <glyph glyph-name="uni027C" unicode="&#x27c;" horiz-adv-x="785" 
d="M157 -419v1536h166v-169h12q30 84 109.5 135.5t180.5 51.5q86 0 143 -41l-58 -146q-42 21 -99 21q-122 0 -202 -74.5t-80 -187.5v-1126h-172z" />
    <glyph glyph-name="uni027D" unicode="&#x27d;" horiz-adv-x="785" 
d="M448 -419q-127 0 -209 80t-82 220v1236h166v-169h12q30 84 109.5 135.5t180.5 51.5q86 0 143 -41l-58 -146q-42 21 -99 21q-122 0 -202 -74.5t-80 -187.5v-826q0 -152 163 -152q25 0 55 6v-145q-26 -9 -99 -9z" />
    <glyph glyph-name="uni027E" unicode="&#x27e;" horiz-adv-x="625" 
d="M329 0h-172v835q0 138 88.5 217.5t217.5 79.5q55 0 98 -15v-151q-34 6 -55 6q-78 0 -127.5 -35t-49.5 -114v-823z" />
    <glyph glyph-name="uni027F" unicode="&#x27f;" horiz-adv-x="613" 
d="M457 -419h-172v1242q0 79 -49.5 114t-127.5 35q-22 0 -56 -6v151q43 15 99 15q129 0 217.5 -79.5t88.5 -217.5v-1254z" />
    <glyph glyph-name="uni0280" unicode="&#x280;" horiz-adv-x="1291" 
d="M177 1082h460q195 0 305.5 -92t110.5 -239q0 -104 -55.5 -183.5t-157.5 -118.5l274 -449h-215l-255 419h-266v-419h-201v1082zM378 579h279q96 0 145.5 51t49.5 121t-55 122t-160 52h-259v-346z" />
    <glyph glyph-name="uni0281" unicode="&#x281;" horiz-adv-x="1291" 
d="M637 0h-460v1082h201v-419h266l255 419h215l-273 -449q102 -38 157 -117t55 -184q0 -146 -111 -239t-305 -93zM378 503v-346h259q106 0 160.5 52.5t54.5 125.5q0 68 -49.5 118t-145.5 50h-279z" />
    <glyph glyph-name="uni0282" unicode="&#x282;" horiz-adv-x="1070" 
d="M108 268l163 40q47 -180 258 -180q117 0 189.5 50.5t72.5 124.5q0 119 -166 157l-186 43q-296 69 -296 306q0 141 116 232t294 91q305 0 395 -265l-154 -44q-62 160 -241 160q-103 0 -171 -47t-68 -119q0 -63 45 -100t147 -62l166 -41q297 -73 297 -303
q0 -146 -121.5 -240t-315.5 -94q-166 0 -276 70v-79q0 -143 189 -143q40 0 55 6v-148q-35 -12 -99 -12q-129 0 -211 78.5t-82 218.5v300z" />
    <glyph glyph-name="uni0283" unicode="&#x283;" horiz-adv-x="919" 
d="M195 -442q-61 0 -125 14l9 160q35 -8 98 -8q88 0 136 51t48 146v1272q0 175 95.5 269t267.5 94q60 0 128 -14l-11 -160q-39 9 -99 9q-86 0 -134.5 -51.5t-48.5 -146.5v-1272q0 -175 -96 -269t-268 -94z" />
    <glyph glyph-name="uni0284" unicode="&#x284;" horiz-adv-x="919" 
d="M195 -442q-61 0 -125 14l9 160q35 -8 98 -8q88 0 136 51t48 146v102h-221v134h221v1036q0 175 95.5 269t267.5 94q60 0 128 -14l-11 -160q-39 9 -99 9q-86 0 -134.5 -51.5t-48.5 -146.5v-1036h221v-134h-221v-102q0 -175 -96 -269t-268 -94z" />
    <glyph glyph-name="uni0285" unicode="&#x285;" horiz-adv-x="919" 
d="M361 0v768q0 94 -48.5 146t-135.5 52q-59 0 -98 -9l-9 157q62 18 125 18q172 0 268 -94.5t96 -269.5v-847q0 -95 48.5 -146t134.5 -51q64 0 99 8l11 -160q-68 -14 -128 -14q-172 0 -267.5 94t-95.5 269v79z" />
    <glyph glyph-name="uni0286" unicode="&#x286;" horiz-adv-x="1105" 
d="M704 227v-250l241 -236l-116 -119l-141 150q-57 -191 -287 -191q-134 0 -218 74.5t-84 190.5q0 125 80.5 196t204.5 71q76 0 148 -29v1109q0 177 89.5 270t259.5 93q60 0 128 -14l-11 -160q-39 9 -99 9q-87 0 -141 -52t-54 -146v-966zM532 -91q-66 44 -122 44
q-51 0 -82 -31t-31 -76q0 -46 28.5 -75.5t73.5 -29.5q60 0 96.5 31t36.5 80v57z" />
    <glyph glyph-name="uni0287" unicode="&#x287;" horiz-adv-x="744" 
d="M102 0v145h238v652q0 99 -40 134t-108 35q-31 0 -76 -9l-35 154q54 21 128 21q56 0 109 -18t97 -52.5t70.5 -91t26.5 -126.5v-699h169v-145h-169v-268h-172v268h-238z" />
    <glyph glyph-name="uni0288" unicode="&#x288;" horiz-adv-x="756" 
d="M643 1117v-145h-239v-1080q0 -52 12 -87t34.5 -52t46.5 -23t56 -6q35 0 75 8l35 -154q-51 -20 -128 -20q-56 0 -108.5 18t-96.5 52.5t-70.5 91t-26.5 126.5v1126h-169v145h169v268h171v-268h239z" />
    <glyph glyph-name="uni0289" unicode="&#x289;" horiz-adv-x="1259" 
d="M1260 713v-134h-192v-579h-172v189h-12q-42 -91 -126.5 -147.5t-204.5 -56.5q-163 0 -262 107.5t-99 314.5v172h-192v134h192v404h172v-404h532v404h172v-404h192zM896 457v122h-532v-160q0 -121 68 -194.5t176 -73.5q50 0 99.5 19t92.5 55t69.5 96.5t26.5 135.5z" />
    <glyph glyph-name="uni028A" unicode="&#x28a;" horiz-adv-x="1291" 
d="M646 140q79 0 139 20.5t94 51t55.5 72t28 77.5t6.5 75q0 61 -20.5 127t-45 113t-45 106t-20.5 108q0 242 337 242v-160q-136 0 -136 -105q0 -48 20.5 -102t44.5 -97.5t44.5 -115.5t20.5 -153q0 -65 -13.5 -121.5t-50 -112.5t-94 -96t-151 -64.5t-214.5 -24.5
q-120 0 -213.5 24.5t-151 64.5t-94.5 96t-51 113t-14 121q0 81 21 153t46 115.5t46 97.5t21 102q0 105 -140 105v160q67 0 120.5 -10t88 -25.5t60 -38.5t38.5 -44t20.5 -47t9 -42t1.5 -35q0 -49 -20.5 -108t-45 -106t-45 -113t-20.5 -127q0 -39 6.5 -75t28 -77.5t55.5 -72
t94 -51t139 -20.5z" />
    <glyph glyph-name="uni028B" unicode="&#x28b;" horiz-adv-x="1105" 
d="M553 145q50 0 87.5 13t68 45t46.5 92t16 147v384q0 66 -21.5 95.5t-65.5 29.5q-54 0 -123 -17l-23 154q141 44 227 44q56 0 96 -19t61 -46t33 -72.5t14.5 -81.5t2.5 -90v-381q0 -237 -112 -349.5t-307 -112.5q-193 0 -304.5 113t-111.5 349v675h198v-675q0 -87 16.5 -147
t47.5 -91.5t68 -45t86 -13.5z" />
    <glyph glyph-name="uni028C" unicode="&#x28c;" horiz-adv-x="1140" 
d="M70 0l413 1117h174l414 -1117h-187l-308 890h-12l-308 -890h-186z" />
    <glyph glyph-name="uni028D" unicode="&#x28d;" horiz-adv-x="1664" 
d="M1254 1117l340 -1117h-180l-242 855h-11l-239 -855h-183l-236 852h-11l-242 -852h-180l340 1117h169l244 -858h18l244 858h169z" />
    <glyph glyph-name="uni028E" unicode="&#x28e;" horiz-adv-x="1140" 
d="M873 1536q87 0 125 -20l-44 -152q-101 26 -160.5 -3.5t-104.5 -150.5l-32 -87l414 -1123h-187l-308 890h-12l-308 -890h-186l474 1280q96 256 329 256z" />
    <glyph glyph-name="uni028F" unicode="&#x28f;" horiz-adv-x="1105" 
d="M253 1082l300 -542l299 542h224l-427 -723v-359h-198v369l-422 713h224z" />
    <glyph glyph-name="uni0290" unicode="&#x290;" horiz-adv-x="1221" 
d="M829 0h-704v131l634 814v12h-614v160h835v-137l-616 -808v-12h637v-300q0 -81 43.5 -111.5t122.5 -30.5q40 0 55 6v-149q-32 -11 -99 -11q-129 0 -211.5 78t-82.5 218v140z" />
    <glyph glyph-name="uni0291" unicode="&#x291;" horiz-adv-x="1259" 
d="M783 0h-216l-136 -192l-134 90l72 102h-232v145l628 812h-640v160h861v-137l-625 -820h122q65 91 105.5 144.5t92 112t92 88t88.5 49t99 19.5q107 0 181.5 -67.5t74.5 -168.5q0 -43 -13.5 -87t-46.5 -89.5t-81 -80.5t-123.5 -57.5t-168.5 -22.5zM679 160h106
q123 0 192.5 49t69.5 114q0 41 -29.5 62.5t-69.5 21.5q-64 0 -118.5 -55t-150.5 -192z" />
    </font>
</defs>
</svg>
